Приключения Паддингтона / Paddington (Пол Кинг) [2014, Великобритания, Франция, комедия, приключения, семейный, HDRip] Dub (iTunes)

Ответить на тему
 

lotto ®

Стаж: 7 лет 8 месяцев

Сообщений: 221

Симпатии: 409

Приключения Паддингтона / Paddington
«Пожалуйста, присмотрите за этим медведем. Спасибо»
-- Страна: Великобритания, Франция
Жанр: комедия, приключения, семейный
Год выпуска: 2014
Продолжительность: 01:35:13
Перевод: Профессиональный (дублированный) iTunes
Cубтитры: нет--Режиссер: Пол Кинг
В ролях: Джеффри Палмер, Тим Дауни, Мадлен Уорролл, Лотти Стир, Тереза Уотсон, Имелда Стонтон, Майкл Гэмбон, Бен Уишоу, Хью Бонневилль, Салли Хокинс--Описание: Познакомьтесь, это медведь по имени Паддингтон из дремучего Перу. Он приехал в Лондон, чтобы обрести семью и стать настоящим английским джентльменом. На пути к этой цели его ожидают невероятные приключения, полные юмора и опасностей.-- --Качество видео: HDRip
Формат видео: AVI
Видео: XviD, 720x304, 1786 kbps, 23.976 fps
Аудио: AC3, 48 KHz, 6 ch, 384 kbps (русский, дублированный)

MediaInfo

General
Complete name : Paddington.HDRip.2014.avi
Format : AVI
Format/Info : Audio Video Interleave
File size : 1.45 GiB
Duration : 1h 35mn
Overall bit rate : 2 180 Kbps
Writing application : VirtualDubMod 1.5.10.3 | www.virtualdub-fr.org || (build 2550/release)
Writing library : VirtualDubMod build 2550/release
Video
ID : 0
Format : MPEG-4 Visual
Format profile : Advanced [email protected]
Format settings, BVOP : 1
Format settings, QPel : No
Format settings, GMC : No warppoints
Format settings, Matrix : Custom
Codec ID : XVID
Codec ID/Hint : XviD
Duration : 1h 35mn
Bit rate : 1 786 Kbps
Width : 720 pixels
Height : 304 pixels
Display aspect ratio : 2.35:1
Frame rate : 23.976 fps
Color space : YUV
Chroma subsampling : 4:2:0
Bit depth : 8 bits
Scan type : Progressive
Compression mode : Lossy
Bits/(Pixel*Frame) : 0.340
Stream size : 1.19 GiB (82%)
Writing library : XviD 73
Audio
ID : 1
Format : AC-3
Format/Info : Audio Coding 3
Mode extension : CM (complete main)
Format settings, Endianness : Big
Codec ID : 2000
Duration : 1h 35mn
Bit rate mode : Constant
Bit rate : 384 Kbps
Channel(s) : 6 channels
Channel positions : Front: L C R, Side: L R, LFE
Sampling rate : 48.0 KHz
Bit depth : 16 bits
Compression mode : Lossy
Stream size : 261 MiB (18%)
Alignment : Split accross interleaves
Interleave, duration : 42 ms (1.00 video frame)
Interleave, preload duratio : 500 ms

Скриншот c названием фильма

Скриншоты





Создавать темы 28-Мар-2015 18:03

[Профиль]  [ЛС] 
Показать сообщения:    
Ответить на тему

Текущее время: 24-Сен 06:32

Часовой пояс: UTC + 5



Вы не можете начинать темы
Вы не можете отвечать на сообщения
Вы не можете редактировать свои сообщения
Вы не можете удалять свои сообщения
Вы не можете голосовать в опросах
Вы не можете прикреплять файлы к сообщениям
Вы не можете скачивать файлы