Белая лента / Das weisse Band - Eine deutsche Kindergeschichte (Михаэль Ханеке / Michael Haneke) [2009, Германия, Франция, Италия, драма, детектив, HDRip] (MVO) (Sub rus, eng + Original Ger)

Ответить на тему
 

kat222000 ®

Стаж: 6 лет 8 месяцев

Сообщений: 608

Симпатии: 1055

-Белая лента / Das weisse Band - Eine deutsche Kindergeschichte-Страна: Германия, Франция, Италия
Жанр: драма, детектив
Год выпуска: 2009
Продолжительность: 02:23:33
Перевод: Профессиональный (многоголосый закадровый)-Cубтитры: Русские, английские - отключаемые (softsub (SRT))
Оригинальная аудиодорожка: немецкий-Режиссер: Михаэль Ханеке / Michael Haneke-В ролях: Кристиан Фридель (The School Teacher), Эрнст Якоби (The School Teacher as an Old Man, озвучка), Леони Бенеш (Eva), Ульрих Тукур (The Baron), Урсина Ларди (The Baroness), Фион Мутерт (Sigi), Михаэль Кранц (The Tutor), Бургхарт Клаусснер (The Pastor), Штеффи Кюнерт (The Pastor's Wife), Мария-Виктория Драгус (Klara), Леонард Проксауф (Martin), Левин Хеннинг (Adolf)-Описание: Деревня в протестантской северной Германии. 1913-1914 года. Канун первой мировой войны. История о детях и подростках церковного хора, поддерживаемого деревенским школьным учителем и их семьями: бароном, управляющим, пастором, доктором, акушеркой, землевладельцами. Происшедший загадочный несчастный случай постепенно принимает характер карательного ритуала. Кто стоит за этим всем?- -Возраст: зрителям, достигшим 18 лет-Рейтинг MPAA: лицам до 17 лет обязательно присутствие взрослого-Качество видео: HDRip (Исходник - BDRip 1080p)
Формат видео: AVI
Видео кодек: XviD
Аудио кодек: AC3
Видео: XviD; 720x384 (1.875); 1095 Kbps; 23,976 fps; 0,165 bpp
Аудио 1: AC3; 48 kHz; 192 Kbps; CBR; 2 ch |rus|
Аудио 2: AC3; 48 kHz; 160 Kbps; CBR; 2 ch |de|-

Знаете ли Вы, что...

*Подзаголовок фильма - «Немецкая детская история».
*Фильм снимался в цвете, а потом был переведен в черно-белое изображение.
-

Награды

- Золотой глобус, 2010 год
Лучший фильм на иностранном языке- Каннский кинофестиваль, 2009 год
Золотая пальмовая ветвь
Приз ФИПРЕССИ (конкурсная программа)- Европейская киноакадемия, 2009 год
Лучший фильм
Лучший режиссер (Михаэль Ханеке)
Лучшая работа сценариста (Михаэль Ханеке)- Сан-Себастьян, 2009 год
Приз ФИПРЕССИ за лучший фильм года
-

MediaInfo

General
Format : AVI
Format/Info : Audio Video Interleave
File size : 1.47 GiB
Duration : 2h 23mn
Overall bit rate : 1 461 Kbps
Writing application : VirtualDubMod 1.5.10.2 (build 2542/release)
Writing library : VirtualDubMod build 2542/release
Video
ID : 0
Format : MPEG-4 Visual
Format profile : Advanced [email protected]
Format settings, BVOP : Yes
Format settings, QPel : No
Format settings, GMC : No warppoints
Format settings, Matrix : Default (H.263)
Codec ID : XVID
Codec ID/Hint : XviD
Duration : 2h 23mn
Bit rate : 1 095 Kbps
Width : 720 pixels
Height : 384 pixels
Display aspect ratio : 1.85:1
Frame rate : 23.976 fps
Color space : YUV
Chroma subsampling : 4:2:0
Bit depth : 8 bits
Scan type : Progressive
Compression mode : Lossy
Bits/(Pixel*Frame) : 0.165
Stream size : 1.10 GiB (75%)
Writing library : XviD 1.2.1 (UTC 2008-12-04)
Audio #1
ID : 1
Format : AC-3
Format/Info : Audio Coding 3
Mode extension : CM (complete main)
Format settings, Endianness : Big
Codec ID : 2000
Duration : 2h 23mn
Bit rate mode : Constant
Bit rate : 192 Kbps
Channel(s) : 2 channels
Channel positions : Front: L R
Sampling rate : 48.0 KHz
Bit depth : 16 bits
Compression mode : Lossy
Stream size : 197 MiB (13%)
Alignment : Split accross interleaves
Interleave, duration : 42 ms (1.00 video frame)
Interleave, preload duration : 500 ms
Audio #2
ID : 2
Format : AC-3
Format/Info : Audio Coding 3
Mode extension : CM (complete main)
Format settings, Endianness : Big
Codec ID : 2000
Duration : 2h 23mn
Bit rate mode : Constant
Bit rate : 160 Kbps
Channel(s) : 2 channels
Channel positions : Front: L R
Sampling rate : 48.0 KHz
Bit depth : 16 bits
Compression mode : Lossy
Stream size : 164 MiB (11%)
Alignment : Split accross interleaves
Interleave, duration : 42 ms (1.00 video frame)
Interleave, preload duration : 500 ms
-

Скриншоты



- - -
-

Создавать темы 29-Мар-2015 00:26

[Профиль]  [ЛС] 

horrificboy

Стаж: 4 года 2 месяца

Сообщений: 24

Симпатии: 2

Подзаголовок фильма — «Немецкая детская история». а тут зрителям, достигшим 18 лет))) what the unique film)

Создавать темы 29-Мар-2015 16:43

[Профиль]  [ЛС] 

kat222000 ®

Стаж: 6 лет 8 месяцев

Сообщений: 608

Симпатии: 1055

928060Подзаголовок фильма — «Немецкая детская история». а тут зрителям, достигшим 18 лет))) what the unique film)
kinopoisk.ru - Все вопросы сюда...

Создавать темы 29-Мар-2015 19:58

[Профиль]  [ЛС] 

horrificboy

Стаж: 4 года 2 месяца

Сообщений: 24

Симпатии: 2

928116
928060Подзаголовок фильма — «Немецкая детская история». а тут зрителям, достигшим 18 лет))) what the unique film)
kinopoisk.ru - Все вопросы сюда...
да тут так написан)

Создавать темы 30-Мар-2015 13:36

[Профиль]  [ЛС] 
Показать сообщения:    
Ответить на тему

Текущее время: 19-Дек 03:30

Часовой пояс: UTC + 5



Вы не можете начинать темы
Вы не можете отвечать на сообщения
Вы не можете редактировать свои сообщения
Вы не можете удалять свои сообщения
Вы не можете голосовать в опросах
Вы не можете прикреплять файлы к сообщениям
Вы не можете скачивать файлы