Чародейки / W.I.T.C.H. / Сезон: 1,2 / Серии: 1-52 из 52 (Норман ЛеБланк / Norman LeBlanc) [2004-2006, мультфильм, фантастика, фэнтези, боевик, триллер, DVDRip] Dub

Ответить на тему
 

SNIL ®

Стаж: 5 лет 8 месяцев

Сообщений: 2624

Симпатии: 341

W.I.T.C.H
Чародейки
-
Год выпуска: 2004-2006
Страна: США, Франция
Жанр: мультфильм, фантастика, фэнтези, боевик, триллер
Продолжительность: 52 эп. по 20 мин.-Озвучка:
  • Профессиональный (дублированный)
-Режиссёр: Норман ЛеБланк / Norman LeBlanc-Описание:
Первоначально на планете Меридиан, мире, живущем параллельно с Землей, правила легитимная власть в лице Королевы. Но в результате государственного переворота на планете установился режим принца Фобоса. Законная наследница меридианского трона Элион, дочь последней королевы была переправлена на Землю, в небольшой город Хиттерфилд верными последней королеве слугами.-Качество: DVDRip
Формат видео: AVI
Видео: 624x464 (1.34:1), 25 fps, XviD build 65 ~1099 kbps avg, 0.15 bit/pixel
Аудио Russian: 48 kHz, MPEG Layer 3, 2 ch, ~128.00 kbps avg
Источник-

Подробные тех. данные

Format                                   : AVI
Format/Info                              : Audio Video Interleave
File size                                : 192 MiB
Duration                                 : 21mn 43s
Overall bit rate                         : 1 238 Kbps
Writing application                      : VirtualDubMod 1.5.10.3 | www.virtualdub-fr.org || (build 2550/release)
Writing library                          : VirtualDubMod build 2550/release
Video
ID                                       : 0
Format                                   : MPEG-4 Visual
Format profile                           : Advanced Simple@L5
Format settings, BVOP                    : 1
Format settings, QPel                    : No
Format settings, GMC                     : No warppoints
Format settings, Matrix                  : Custom
Codec ID                                 : XVID
Codec ID/Hint                            : XviD
Duration                                 : 21mn 43s
Bit rate                                 : 1 100 Kbps
Width                                    : 624 pixels
Height                                   : 464 pixels
Display aspect ratio                     : 4:3
Frame rate                               : 25.000 fps
Color space                              : YUV
Chroma subsampling                       : 4:2:0
Bit depth                                : 8 bits
Scan type                                : Progressive
Compression mode                         : Lossy
Bits/(Pixel*Frame)                       : 0.152
Stream size                              : 171 MiB (89%)
Writing library                          : XviD 65
Audio
ID                                       : 1
Format                                   : MPEG Audio
Format version                           : Version 1
Format profile                           : Layer 3
Codec ID                                 : 55
Codec ID/Hint                            : MP3
Duration                                 : 21mn 43s
Bit rate mode                            : Constant
Bit rate                                 : 128 Kbps
Channel(s)                               : 2 channels
Sampling rate                            : 48.0 KHz
Compression mode                         : Lossy
Stream size                              : 19.9 MiB (10%)
Alignment                                : Aligned on interleaves
Interleave, duration                     : 40 ms (1.00 video frame)
Interleave, preload duration             : 504 ms
Writing library                          : LAME3.98r
Encoding settings                        : -m s -V 4 -q 2 -lowpass 17 -b 128

Список серий

Первый сезон:
01.История начинается (It Begins)
02.Началось (It Resumes)
03.Ключ (The Key)
04.С днем рождения, Вилл (Happy Birthday Will)
05.На пользу обществу (A Service to the Community)
06.Лабиринт (The Labyrinth)
07.Разделяй и властвуй (Divide and Conquer)
08.Засада у Торус Филни (Ambush at Torus Filney)
09.Возвращение Охотника (Return of the Tracker)
10.Внутри картины (Framed)
11.Звезда Трибы (The Stone of Threbe)
12.Явление принцессы (The Princess Revealed)
13.Не для печати (Stop the Presses)
14.Родительский день (Parents' Night)
15.Слизни (The Mudslugs)
16.Призраки Элион (Ghosts of Elyon)
17.Могрифы (The Mogriffs)
18.Делай что велят (Walk This Way)
19.Подводная шахта (The Underwater Mines)
20.Печать Фобоса (The Seal of Phobos)
21.Побег из кавигора (Escape From Cavigor)
22.Калебу брошен вызов (Caleb’s Challenge)
23.Битва у стен замка (The Battle of the Meridian Plains)
24.Спасение повстанцев (The Rebel Rescue)
25.Похищенное сердце (The Stolen Heart)
26.Последняя битва (The Final Battle)
Второй сезон:
01.А значит Анонимность (A is for Anonymous)
02.Б значит Бравада (B is for Betrayal)
03.Ц значит Цель (C is for Changes)
04.Д значит Давление (D is for Dangerous)
05.Е значит Единство (E is for Enemy)
06.Ф значит Фальшь (F is for Facades)
07.Г значит Грязь (G is for Garbage)
08.Х значит Хитрость (H is for Hunted)
09.И значит Иллюзия (I is for Illusion)
10.Д значит Драгоценный камень (J is for Jewel)
11.К значит Конец неизвестности(K is for Knowledge)
12.Л значит Луковое горе (L is for Loser)
13.М значит Милосердие (M is for Mercy)
14.Н значит Нарцисс (N is for Narcissist)
15.О значит Обман (O is for Obedience)
16.П значит Прикрытие (P is for Protectors)
17.К значит Колдовство (Q is for Quarry)
18.Р значит Рвение (R is for Relentless)
19.С значит Быть Собой (S is for Self)
20.Т значит Травма (T is for Trauma)
21.У значит Убаюкать (U is for Undivided)
22.В значит Виктория, Победа (V is for Victory)
23.В значит Ведьма (W is for Witch)
24.Икс значит Ксанаду (X is for Xanadu)
25.У значит Урожай (Y is for Yield)
26.З значит Зенит (Z is for Zenith)

Скриншоты

Создавать темы 29-Мар-2015 07:09

[Профиль]  [ЛС] 

SNIL ®

Стаж: 5 лет 8 месяцев

Сообщений: 2624

Симпатии: 341

Я раздал 25 гигов, скинул другу чтоб помог с раздачей (он раздал 10 гигов), скачано только один раз!
Вы хоть ради приличия друг другу тоже раздавайте)

Создавать темы 14-Апр-2015 00:23

[Профиль]  [ЛС] 
Показать сообщения:    
Ответить на тему

Текущее время: 22-Сен 07:44

Часовой пояс: UTC + 5



Вы не можете начинать темы
Вы не можете отвечать на сообщения
Вы не можете редактировать свои сообщения
Вы не можете удалять свои сообщения
Вы не можете голосовать в опросах
Вы не можете прикреплять файлы к сообщениям
Вы не можете скачивать файлы