Заза (Андрей Силкин) [2008, мелодрама, комедия, DVDRip] (Original Rus)

Ответить на тему
 

kat222000 ®

Стаж: 6 лет 8 месяцев

Сообщений: 608

Симпатии: 1055

-Заза-Жанр: мелодрама, комедия
Производство: Россия
Год выпуска: 2008
Продолжительность: 01:31:31-Режиссёр: Андрей Силкин-В ролях: Артем Григорьев, Евгения Дмитриева, Андрей Щипанов, Ксения Бородина, Аня Куликова, Игорь Балалаев, Алексей Колубков-Описание: Азалия Викторовна, или просто Заза, приезжает в Москву навестить сына, семнадцатилетнего студента Никиту. Волею обстоятельств на вокзале она встречается с молодым гламурным Антоном, а несколько позже выясняется, что он живет по соседству с Никитой. Однако, добравшись наконец до его жилища, Заза попадает в разгар шумной вечеринки — Никита вовсю отмечает день рождения и совсем забыл про приезд матери. Более того — стыдится её в обществе товарищей. Заза злится на неблагодарного сына, ради которого стольким пожертвовала, однако у Антона совершенно иной взгляд на обстоятельства. Ведь любовь — еще не повод приковать мужчину на веки. И уж тем более — портить праздник.
Антон учится в том ВУЗе, который так и не закончила Заза много лет назад, забеременев. А преподаватель у него — её бывший близкий друг, Сергей Юрлов. Отец Никиты. Азалия и Антон постепенно увлекаются друг другом. Оба погружаются в мир любовных увлечений и экспериментов. Но конец всему положит Никита, который сообщит другу семьи, дяде Севе, что Заза «загуляла» с молодым. Мир необычайно тесен, но дети и родители как будто живут в разных измерениях. Наши судьбы сплетаются причудливым образом — чтобы потом мы оказались вдали от тех, кто нам дорог. И только время всё расставляет на места.- -Возраст: зрителям, достигшим 16 лет-Качество видео: DVDRip
Формат видео: AVI
Видео кодек: Xvid
Аудио кодек: AC3
Видео: 704x528 (1.33:1), 25 fps, XviD build 64 ~2071 kbps avg, 0.22 bit/pixel
Аудио: 48 kHz, AC3 Dolby Digital, 2/0 (L,R) ch, ~192 kbps-

MediaInfo

Общее
Формат : AVI
Формат/Информация : Audio Video Interleave
Размер файла : 1,45 Гбайт
Продолжительность : 1 ч. 31 м.
Общий поток : 2274 Кбит/сек
Программа кодирования : VirtualDubMod 1.5.10.3 | www.virtualdub-fr.org || (build 2550/release)
Библиотека кодирования : VirtualDubMod build 2550/release
Видео
Идентификатор : 0
Формат : MPEG-4 Visual
Профиль формата : Advanced [email protected]
Параметр BVOP формата : 1
Параметр QPel формата : Нет
Параметр GMC формата : Без точки перехода
Параметр матрицы формата : Выборочная
Идентификатор кодека : XVID
Идентификатор кодека/Подсказка : XviD
Продолжительность : 1 ч. 31 м.
Битрейт : 2072 Кбит/сек
Ширина : 704 пикселя
Высота : 528 пикселей
Соотношение сторон : 4:3
Частота кадров : 25,000 кадров/сек
Цветовое пространство : YUV
Субдискретизация насыщенности : 4:2:0
Битовая глубина : 8 бит
Тип развёртки : Прогрессивная
Метод сжатия : С потерями
Бит/(Пиксели*Кадры) : 0.223
Размер потока : 1,32 Гбайт (91%)
Библиотека кодирования : XviD 64
Аудио
Идентификатор : 1
Формат : AC-3
Формат/Информация : Audio Coding 3
Расширение режима : CM (complete main)
Идентификатор кодека : 2000
Продолжительность : 1 ч. 31 м.
Вид битрейта : Постоянный
Битрейт : 192 Кбит/сек
Каналы : 2 канала
Расположение каналов : Front: L R
Частота : 48,0 КГц
Битовая глубина : 16 бит
Метод сжатия : С потерями
Размер потока : 126 Мбайт (8%)
Выравнивание : Разделение по промежуткам
Продолжительность промежутка : 40 мс. (1,00 видеокадр)
Время предзагрузки промежутка : 500 мс.
-

Скриншоты



- - -

Создавать темы 29-Мар-2015 20:28

[Профиль]  [ЛС] 
Показать сообщения:    
Ответить на тему

Текущее время: 16-Дек 12:24

Часовой пояс: UTC + 5



Вы не можете начинать темы
Вы не можете отвечать на сообщения
Вы не можете редактировать свои сообщения
Вы не можете удалять свои сообщения
Вы не можете голосовать в опросах
Вы не можете прикреплять файлы к сообщениям
Вы не можете скачивать файлы