Великий Учитель Онидзука 2012 / GTO / GTO: Great Teacher Onizuka 2012 (Imai Kazuhisa) [11/11+SPECIAL] [2012, комедия, школа, HDTVRip] [MVO] (EastFilm)

Ответить на тему
 

In Live Action ®

Стаж: 2 года 9 месяцев

Сообщений: 7

Симпатии: 6

Великий Учитель Онидзука 2012 / GTO / GTO: Great Teacher Onizuka 2012
Страна: Япония
Жанр: комедия, школа
Год выпуска: 2012
Продолжительность: 11 серий по 50 мин.
Перевод: Профессиональный (многоголосый закадровый) | EastFilm | по субтитрам от Phoneix Cor
Режиссер: Imai Kazuhisa
В ролях:
AKIRA - Онидзука Эйкичи | Shirota Yu - Данма Рюджи
Yamamoto Yusuke - Саэджима Тошиюки | Kuroki Hitomi - Сакурай Рёко
Takimoto Miori - Фуюцуки Адзуса | Kawaguchi Haruna - Аизава Мияби
Nakagawa Taishi - Йошикава Нобору | Shinkawa Yua - Уэхара Анко
Описание: Бывший член банды «Онибаку», Онидзука Эйкичи, давно похоронил мечту стать учителем. Ведь для этого нужно престижное образование и стабильное положение в обществе. Однако по воле случая Эйкичи проявил себя перед директором школы, в которой подрабатывал садовником, защитив учеников в конфликте с завучем. По просьбе директора он был нанят в школу учителем.
Казалось бы, мечта исполнилась и Эйкичи ждет блестящая карьера в новой роли, но взяли его лишь для того, чтобы усмирить самый проблемный класс. Ученики класса 2-4 на вид самые обычные дети, но это не мешает им изводить учителей, которые увольняются один за другим.
Та же участь постигла бы и Онидзуку, не будь он таким, каков он есть...
Качество видео: HDTVRip
Формат видео: MP4
Видео: H264 1280x720 (16:9) 23.976fps, ~3000 kBit/s
Аудио: Russian 2.0 MP3 (~224 kBit/s, 48 kHz) | EastFilm |

MediaInfo

General
Complete name :Great_Teacher_Onizuka_[01]_[Dorama]_[EastFilm].mp4
Format : MPEG-4
Format profile : Base Media
Codec ID : isom
File size : 1.28 GiB
Duration : 57mn 34s
Overall bit rate mode : Variable
Overall bit rate : 3 179 Kbps
Encoded date : UTC 2012-10-20 14:17:45
Tagged date : UTC 2012-10-20 14:17:45
Video
ID : 1
Format : AVC
Format/Info : Advanced Video Codec
Format profile : [email protected]
Format settings, CABAC : Yes
Format settings, ReFrames : 3 frames
Codec ID : avc1
Codec ID/Info : Advanced Video Coding
Duration : 57mn 29s
Bit rate : 2 953 Kbps
Maximum bit rate : 14.4 Mbps
Width : 1 280 pixels
Height : 720 pixels
Display aspect ratio : 16:9
Frame rate mode : Constant
Frame rate : 23.976 fps
Color space : YUV
Chroma subsampling : 4:2:0
Bit depth : 8 bits
Scan type : Progressive
Bits/(Pixel*Frame) : 0.134
Stream size : 1.19 GiB (93%)
Writing library : x264 core 65 r999kMod cc51047
Encoding settings : cabac=1 / ref=3 / deblock=1:0:0 / analyse=0x3:0x133 / me=umh / subme=6 / psy_rd=1.0:0.0 / mixed_ref=1 / me_range=16 / chroma_me=1 / trellis=1 / 8x8dct=1 / cqm=0 / deadzone=21,11 / chroma_qp_offset=-2 / threads=2 / thread_queue=2 / nr=0 / decimate=1 / mbaff=0 / bframes=3 / b_pyramid=1 / b_adapt=1 / b_bias=0 / direct=1 / wpredb=1 / keyint=250 / keyint_min=25 / scenecut=40(pre) / rc=crf / crf=21.0000 / qcomp=0.60 / qpmin=10 / qpmax=51 / qpstep=4 / ip_ratio=1.40 / pb_ratio=1.30 / aq=1:1.00
Encoded date : UTC 2012-07-30 14:55:51
Tagged date : UTC 2012-10-20 14:18:33
Audio
ID : 2
Format : MPEG Audio
Format version : Version 1
Format profile : Layer 3
Codec ID : 6B
Duration : 57mn 34s
Bit rate mode : Variable
Bit rate : 227 Kbps
Maximum bit rate : 280 Kbps
Channel(s) : 2 channels
Sampling rate : 48.0 KHz
Compression mode : Lossy
Stream size : 93.3 MiB (7%)
Title : I 
Language : Russian
Encoded date : UTC 2012-10-20 14:18:23
Tagged date : UTC 2012-10-20 14:18:33

Скриншоты



Последний раз редактировалось: In Live Action (2015-03-30 11:42), всего редактировалось 1 раз

Создавать темы 30-Мар-2015 11:28

[Профиль]  [ЛС] 

Топик был перенесен из форума Азиатские сериалы в форум Полные релизы
xxxxx

Создавать темы 30-Мар-2015 11:43

 

Seven_Sky

Стаж: 6 лет 11 месяцев

Сообщений: 431

Симпатии: 43

In Live Action, спасибо тебе. Озвучка конечно немного хромает(некоторые сцены не продублированы), но все-же это многоголоска.

Создавать темы 04-Апр-2015 10:23

[Профиль]  [ЛС] 
Показать сообщения:    
Ответить на тему

Текущее время: 17-Дек 05:38

Часовой пояс: UTC + 5



Вы не можете начинать темы
Вы не можете отвечать на сообщения
Вы не можете редактировать свои сообщения
Вы не можете удалять свои сообщения
Вы не можете голосовать в опросах
Вы не можете прикреплять файлы к сообщениям
Вы не можете скачивать файлы