Каннамский блюз / Gangnam 1970 (Ха Ю) [2015, Южная Корея, криминал, драма, HDRip] DVO

Ответить на тему
 

lotto ®

Стаж: 7 лет 8 месяцев

Сообщений: 221

Симпатии: 409

Каннамский блюз / Gangnam 1970
«As the district of Gangnam development reaches its peak, two childhood friends' friendship
is tested as their associated gangs battle to take larger shares of the land»
-- Страна: Южная Корея
Жанр: криминал, драма
Год выпуска: 2015
Продолжительность: 02:14:54
Перевод: Любительский (двухголосый закадровый) DeadSno & den904
Cубтитры: нет--Режиссер: Ха Ю
В ролях: Ли Мин Хо, Ким Рэ Вон, Ким Чжи Су--Описание: История о политической власти и сговоре, который произошел, когда началось активное развитие района Каннам в Сеуле.-- --Качество видео: HDRip
Формат видео: AVI
Видео: XviD, 720 x 304, 1353 kbps, 23.976 fps
Аудио: AC3, 48 KHz, 2 ch, 192 kbps (русский, двухголосый)

MediaInfo

General
Complete name : \Gangnam 1970.2014.HDRip.XviD.avi
Format : AVI
Format/Info : Audio Video Interleave
File size : 1.46 GiB
Duration : 2h 14mn
Overall bit rate : 1 554 Kbps
Movie name : Gangnam 1970
Recorded date : 2014
Writing application : VirtualDubMod 1.5.10.3 | www.virtualdub-fr.org || (build 2550/release)
Writing library : VirtualDubMod build 2550/release
Copyright : for tas-ix.net
Video
ID : 0
Format : MPEG-4 Visual
Format profile : Advanced [email protected]
Format settings, BVOP : 1
Format settings, QPel : No
Format settings, GMC : No warppoints
Format settings, Matrix : Default (MPEG)
Codec ID : XVID
Codec ID/Hint : XviD
Duration : 2h 14mn
Bit rate : 1 353 Kbps
Width : 720 pixels
Height : 304 pixels
Display aspect ratio : 2.35:1
Frame rate : 23.976 fps
Color space : YUV
Chroma subsampling : 4:2:0
Bit depth : 8 bits
Scan type : Progressive
Compression mode : Lossy
Bits/(Pixel*Frame) : 0.258
Stream size : 1.27 GiB (87%)
Writing library : XviD 1.2.1 (UTC 2008-12-04)
Audio
ID : 1
Format : AC-3
Format/Info : Audio Coding 3
Mode extension : CM (complete main)
Format settings, Endianness : Big
Codec ID : 2000
Duration : 2h 14mn
Bit rate mode : Constant
Bit rate : 192 Kbps
Channel(s) : 2 channels
Channel positions : Front: L R
Sampling rate : 48.0 KHz
Bit depth : 16 bits
Compression mode : Lossy
Stream size : 185 MiB (12%)
Alignment : Split accross interleaves
Interleave, duration : 42 ms (1.00 video frame)
Interleave, preload duratio : 500 ms

Скриншот c названием фильма

Скриншоты






Создавать темы 30-Мар-2015 13:30

[Профиль]  [ЛС] 

lotto ®

Стаж: 7 лет 8 месяцев

Сообщений: 221

Симпатии: 409

От режиссера фильма "Карнавал бесчестия"

Создавать темы 30-Мар-2015 13:40

[Профиль]  [ЛС] 

Rasul

Стаж: 5 лет 8 месяцев

Сообщений: 100

Симпатии: 6

Спасибо, видно что кино хороший....

Создавать темы 30-Мар-2015 16:53

[Профиль]  [ЛС] 

bekstudio

Стаж: 6 лет 4 месяца

Сообщений: 28

Можно мы тоже скачаем, не уходите с раздачи.

Создавать темы 30-Мар-2015 21:44

[Профиль]  [ЛС] 

FoxSage

Стаж: 4 года 2 месяца

Сообщений: 197

Симпатии: 19

lotto, спасибо

Создавать темы 01-Апр-2015 18:01

[Профиль]  [ЛС] 

Understuped

Стаж: 6 лет 4 месяца

Сообщений: 107

Ого, Ли Мин Хо в фильме =) первый раз вижу но обязан посмотреть как фан )

Создавать темы 04-Апр-2015 12:21

[Профиль]  [ЛС] 

Rayne

Стаж: 6 лет 5 месяцев

Сообщений: 36

Симпатии: 2

встаньте на раздачу пожалуйста)

Создавать темы 27-Июн-2015 19:08

[Профиль]  [ЛС] 

johon1101

Стаж: 1 год 9 месяцев

Сообщений: 2

vstante na razdachu pls

Создавать темы 12-Мар-2016 12:14

[Профиль]  [ЛС] 
Показать сообщения:    
Ответить на тему

Текущее время: 22-Сен 20:26

Часовой пояс: UTC + 5



Вы не можете начинать темы
Вы не можете отвечать на сообщения
Вы не можете редактировать свои сообщения
Вы не можете удалять свои сообщения
Вы не можете голосовать в опросах
Вы не можете прикреплять файлы к сообщениям
Вы не можете скачивать файлы