Огнеупорный / Fireproof (Алекс Кендрик) [2008, США, драма, мелодрама, семейный, DVDRip] (DVO)

Ответить на тему
 

Егор ®

Стаж: 4 года 9 месяцев

Сообщений: 19

Симпатии: 13

Огнеупорный / Fireproof
Страна: США
Жанр: драма, мелодрама, семейный
Год выпуска: 2008
Продолжительность: 01:58:21
Перевод: Профессиональный (двухголосый закадровый)
Cубтитры: нет
Режиссер: Алекс Кендрик
Режиссер: Алекс Кендрик
В ролях: Кирк Кэмерон, Эрин Бети, Кен Бевел, Стивен Дерван, Эрик Янг, Джейсон МакЛеод, Харрис Мальком, Филлис Мальком, Перри Ревелл, Стефани Макулински
Описание: Заходя в горящий дом, капитан Калеб Холт действует по-старому правилу пожарных: «Никогда не оставляй товарища в беде». Приходя домой, где его ждёт жена, чувства к которой давно угасло, он живёт по своим собственным правилам. На работе Калеб всегда спасает других, но как ему спасти свой брак?

Качество видео: DVDRip
Формат видео: AVI
Видео: Xvid 704x368 23.976fps 1192kbps [V: mpeg4 advanced simple profile, yuv420p, 704x368, 1192 kb/s]
Аудио: Dolby AC3 48000Hz 6ch 448kbps [A: ac3, 48000 Hz, 5.1, 448 kb/s]

MediaInfo

General
Complete name : D:\Фильмы\Закачки\Огнеупорный.avi
Format : AVI
Format/Info : Audio Video Interleave
File size : 1.36 GiB
Duration : 1h 58mn
Overall bit rate : 1 650 Kbps
Writing application : VirtualDubMod 1.5.4.1 (build 2178/release)
Writing library : VirtualDubMod build 2178/release
Video
ID : 0
Format : MPEG-4 Visual
Format profile : Advanced [email protected]
Format settings, BVOP : 1
Format settings, QPel : No
Format settings, GMC : No warppoints
Format settings, Matrix : Default (MPEG)
Muxing mode : Packed bitstream
Codec ID : XVID
Codec ID/Hint : XviD
Duration : 1h 58mn
Bit rate : 1 192 Kbps
Width : 704 pixels
Height : 368 pixels
Display aspect ratio : 1.913
Frame rate : 23.976 fps
Color space : YUV
Chroma subsampling : 4:2:0
Bit depth : 8 bits
Scan type : Progressive
Compression mode : Lossy
Bits/(Pixel*Frame) : 0.192
Stream size : 1 009 MiB (72%)
Writing library : XviD 1.2.0.dev47 (UTC 2006-11-01)
Audio
ID : 1
Format : AC-3
Format/Info : Audio Coding 3
Mode extension : CM (complete main)
Format settings, Endianness : Big
Codec ID : 2000
Duration : 1h 58mn
Bit rate mode : Constant
Bit rate : 448 Kbps
Channel(s) : 6 channels
Channel positions : Front: L C R, Side: L R, LFE
Sampling rate : 48.0 KHz
Bit depth : 16 bits
Compression mode : Lossy
Stream size : 379 MiB (27%)
Alignment : Split accross interleaves
Interleave, duration : 42 ms (1.00 video frame)
Interleave, preload duration : 500 ms

Скриншот c названием фильма

Скриншоты

Создавать темы 31-Мар-2015 15:02

[Профиль]  [ЛС] 
Показать сообщения:    
Ответить на тему

Текущее время: 23-Окт 00:20

Часовой пояс: UTC + 5



Вы не можете начинать темы
Вы не можете отвечать на сообщения
Вы не можете редактировать свои сообщения
Вы не можете удалять свои сообщения
Вы не можете голосовать в опросах
Вы не можете прикреплять файлы к сообщениям
Вы не можете скачивать файлы