(Rap) [CD] 25/17 - Русский подорожник - 2014, FLAC (tracks+.cue), lossless

Ответить на тему
 

dermoyader ®

Стаж: 5 лет 5 месяцев

Сообщений: 7

Симпатии: 10

25/17 / Русский подорожник
Жанр: Rap
Носитель: CD
Страна-производитель диска (релиза): Россия
Год издания:
2014
Издатель (лейбл): ООО "Медиалайн"
Страна исполнителя (группы): Россия
Аудиокодек:
FLAC (*.flac)
Тип рипа: tracks+.cue
Битрейт аудио: lossless
Продолжительность: 00:42:22
Наличие сканов в содержимом раздачи: да
Треклист:
01. Подорожник п.у. Дмитрий Ревякин
02. Под цыганским солнцем
03. Чернотроп
04. Поезд
05. Горький туман
06. Волчонок
07. Облако
08. Последний из нас
09. Думай сам
10. Зима-мама
11. Девятибально п.у. Констанин Кинчев и Антон Пух
12. Отец
К сожалению при сканировании обложка диска была повреждена, и поэтому не всё удалось отсканировать.

Лог создания рипа


Exact Audio Copy V1.0 beta 3 from 29. August 2011
Отчёт EAC об извлечении, выполненном 21. декабря 2014, 21:52
25-17 / Русский подорожник
Дисковод: HL-DT-STDVDRAM GT80N Adapter: 0 ID: 0
Режим чтения : Достоверность
Использование точного потока : Да
Отключение кэша аудио : Да
Использование указателей C2 : Нет
Коррекция смещения при чтении : 102
Способность читать области Lead-in и Lead-out : Нет
Заполнение пропущенных сэмплов тишиной : Да
Удаление блоков с тишиной в начале и конце : Нет
При вычислениях CRC использовались нулевые сэмплы : Да
Интерфейс : Встроенный Win32-интерфейс для Win NT/2000
Обработка зазоров : Добавлено к предыдущему треку
Выходной формат : Пользовательский кодировщик
Выбранный битрейт : 896 kBit/s
Качество : Высокий
Добавление ID3-тега : Нет
Утилита сжатия : C:\Program Files (x86)\Exact Audio Copy\Flac\flac.exe
Дополнительные параметры : -V -8 -T "Genre=%genre%" -T "Artist=%artist%" -T "Title=%title%" -T "Album=%albumtitle%" -T "Date=%year%" -T "Tracknumber=%tracknr%" -T "Comment=%comment%" %source%
TOC извлечённого CD
Трек | Старт | Длительность | Начальный сектор | Конечный сектор
---------------------------------------------------------------------
1 | 0:00.00 | 3:18.53 | 0 | 14902
2 | 3:18.53 | 3:28.38 | 14903 | 30540
3 | 6:47.16 | 3:51.68 | 30541 | 47933
4 | 10:39.09 | 3:28.08 | 47934 | 63541
5 | 14:07.17 | 3:51.08 | 63542 | 80874
6 | 17:58.25 | 3:21.30 | 80875 | 95979
7 | 21:19.55 | 3:25.15 | 95980 | 111369
8 | 24:44.70 | 3:32.60 | 111370 | 127329
9 | 28:17.55 | 4:11.00 | 127330 | 146154
10 | 32:28.55 | 3:11.30 | 146155 | 160509
11 | 35:40.10 | 3:26.68 | 160510 | 176027
12 | 39:07.03 | 3:15.65 | 176028 | 190717
Трек 1
Имя файла C:\Users\Home\Downloads\Музыка\25-17 - Русский подорожник\01 Подорожник п.у.Дмитрий Ревякин (музыка 25-17).wav
Длина предзазора 0:00:02.00
Пиковый уровень 98.8 %
Скорость извлечения 2.4 X
Качество трека 100.0 %
CRC теста EBB38DFB
CRC копии EBB38DFB
Трек не обнаружен в базе AccurateRip
Копирование... OK
Трек 2
Имя файла C:\Users\Home\Downloads\Музыка\25-17 - Русский подорожник\02 Под цыганским солнцем (музыка 25-17).wav
Пиковый уровень 98.8 %
Скорость извлечения 2.3 X
Качество трека 99.9 %
CRC теста 0414FA34
CRC копии 0414FA34
Трек не обнаружен в базе AccurateRip
Копирование... OK
Трек 3
Имя файла C:\Users\Home\Downloads\Музыка\25-17 - Русский подорожник\03 Чернотроп (музыка 25-17).wav
Пиковый уровень 100.0 %
Скорость извлечения 3.0 X
Качество трека 100.0 %
CRC теста CE625A15
CRC копии CE625A15
Трек не обнаружен в базе AccurateRip
Копирование... OK
Трек 4
Имя файла C:\Users\Home\Downloads\Музыка\25-17 - Русский подорожник\04 Поезд (музыка 25-17).wav
Пиковый уровень 98.8 %
Скорость извлечения 3.0 X
Качество трека 100.0 %
CRC теста 66FD1473
CRC копии 66FD1473
Трек не обнаружен в базе AccurateRip
Копирование... OK
Трек 5
Имя файла C:\Users\Home\Downloads\Музыка\25-17 - Русский подорожник\05 Горький туман (музыка 25-17).wav
Пиковый уровень 98.8 %
Скорость извлечения 3.3 X
Качество трека 100.0 %
CRC теста C7254E76
CRC копии C7254E76
Трек не обнаружен в базе AccurateRip
Копирование... OK
Трек 6
Имя файла C:\Users\Home\Downloads\Музыка\25-17 - Русский подорожник\06 Волчонок (музыка 25-17).wav
Пиковый уровень 98.8 %
Скорость извлечения 3.4 X
Качество трека 100.0 %
CRC теста BABB0951
CRC копии BABB0951
Трек не обнаружен в базе AccurateRip
Копирование... OK
Трек 7
Имя файла C:\Users\Home\Downloads\Музыка\25-17 - Русский подорожник\07 Облако (музыка 25-17).wav
Пиковый уровень 98.8 %
Скорость извлечения 3.1 X
Качество трека 99.9 %
CRC теста E429BC69
CRC копии E429BC69
Трек не обнаружен в базе AccurateRip
Копирование... OK
Трек 8
Имя файла C:\Users\Home\Downloads\Музыка\25-17 - Русский подорожник\08 Последний из нас (музыка 25-17).wav
Пиковый уровень 98.8 %
Скорость извлечения 3.3 X
Качество трека 99.9 %
CRC теста B0539D28
CRC копии B0539D28
Трек не обнаружен в базе AccurateRip
Копирование... OK
Трек 9
Имя файла C:\Users\Home\Downloads\Музыка\25-17 - Русский подорожник\09 Думай сам (музыка 25-17).wav
Пиковый уровень 100.0 %
Скорость извлечения 3.5 X
Качество трека 99.9 %
CRC теста 67858DF5
CRC копии 67858DF5
Трек не обнаружен в базе AccurateRip
Копирование... OK
Трек 10
Имя файла C:\Users\Home\Downloads\Музыка\25-17 - Русский подорожник\10 Зима-мама (музыка 25-17).wav
Пиковый уровень 98.8 %
Скорость извлечения 4.0 X
Качество трека 100.0 %
CRC теста FC6E574C
CRC копии FC6E574C
Трек не обнаружен в базе AccurateRip
Копирование... OK
Трек 11
Имя файла C:\Users\Home\Downloads\Музыка\25-17 - Русский подорожник\11 Девятибально (музыка 25-17).wav
Пиковый уровень 98.8 %
Скорость извлечения 4.1 X
Качество трека 100.0 %
CRC теста BA32E622
CRC копии BA32E622
Трек не обнаружен в базе AccurateRip
Копирование... OK
Трек 12
Имя файла C:\Users\Home\Downloads\Музыка\25-17 - Русский подорожник\12 Отец (музыка 25-17).wav
Пиковый уровень 98.8 %
Скорость извлечения 3.7 X
Качество трека 99.9 %
CRC теста 5F57E57A
CRC копии 5F57E57A
Трек не обнаружен в базе AccurateRip
Копирование... OK
Ни одного трека нет в базе AccurateRip
Ошибок не произошло
Конец отчёта
---- CUETools DB Plugin V2.1.3
[CTDB TOCID: FnfmBpcaWQsJBmeZKscUvUtqPoI-] found, Submit result: FnfmBpcaWQsJBmeZKscUvUtqPoI- has been confirmed
[ab1e1590] (1/1) Accurately ripped
==== Контрольная сумма отчёта 6C46EC85A4F4BBBCC97797E8937B739B5B92EFD42BCB2B6328C4231F6FD55118 ====

Создание индексно карты (.CUE)

REM GENRE Rap
REM DATE 2014
REM DISCID 9C09EE0C
REM COMMENT "ExactAudioCopy v1.0b3"
PERFORMER "25-17"
TITLE "Русский подорожник"
FILE "01 Подорожник п.у.Дмитрий Ревякин (музыка 25-17).wav" WAVE
TRACK 01 AUDIO
TITLE "Подорожник п.у.Дмитрий Ревякин (музыка 25-17)"
PERFORMER "25-17"
INDEX 01 00:00:00
FILE "02 Под цыганским солнцем (музыка 25-17).wav" WAVE
TRACK 02 AUDIO
TITLE "Под цыганским солнцем (музыка 25-17)"
PERFORMER "25-17"
INDEX 01 00:00:00
FILE "03 Чернотроп (музыка 25-17).wav" WAVE
TRACK 03 AUDIO
TITLE "Чернотроп (музыка 25-17)"
PERFORMER "25-17"
INDEX 01 00:00:00
FILE "04 Поезд (музыка 25-17).wav" WAVE
TRACK 04 AUDIO
TITLE "Поезд (музыка 25-17)"
PERFORMER "25-17"
INDEX 01 00:00:00
FILE "05 Горький туман (музыка 25-17).wav" WAVE
TRACK 05 AUDIO
TITLE "Горький туман (музыка 25-17)"
PERFORMER "25-17"
INDEX 01 00:00:00
FILE "06 Волчонок (музыка 25-17).wav" WAVE
TRACK 06 AUDIO
TITLE "Волчонок (музыка 25-17)"
PERFORMER "25-17"
INDEX 01 00:00:00
FILE "07 Облако (музыка 25-17).wav" WAVE
TRACK 07 AUDIO
TITLE "Облако (музыка 25-17)"
PERFORMER "25-17"
INDEX 01 00:00:00
FILE "08 Последний из нас (музыка 25-17).wav" WAVE
TRACK 08 AUDIO
TITLE "Последний из нас (музыка 25-17)"
PERFORMER "25-17"
INDEX 01 00:00:00
FILE "09 Думай сам (музыка 25-17).wav" WAVE
TRACK 09 AUDIO
TITLE "Думай сам (музыка 25-17)"
PERFORMER "25-17"
INDEX 01 00:00:00
FILE "10 Зима-мама (музыка 25-17).wav" WAVE
TRACK 10 AUDIO
TITLE "Зима-мама (музыка 25-17)"
PERFORMER "25-17"
INDEX 01 00:00:00
FILE "11 Девятибально (музыка 25-17).wav" WAVE
TRACK 11 AUDIO
TITLE "Девятибально (музыка 25-17)"
PERFORMER "25-17 п.у. Констанин Кинчев и Антон Пух"
INDEX 01 00:00:00
FILE "12 Отец (музыка 25-17).wav" WAVE
TRACK 12 AUDIO
TITLE "Отец (музыка 25-17)"
PERFORMER "25-17"
INDEX 01 00:00:00

Лог проверки качества

Скриншот спектра частот

Об альбоме (сборнике)

Приятно отметить отличнейшее оформление релиза, многостраничный буклет с фотографиями и текстами песен.
По нашему мнению, это один из самых интересных релизов за 2014 год и пожалуй самый цельный и сильный альбом дуэта.
"Русский Подорожник" - будто книга с различными историями, которые действительно были достойны видео-клипов и они были экранизированы незадолго до выхода пластинки. Трудоёмкий и затратный, но очень правильный подход !!!

Создавать темы 31-Мар-2015 19:55

[Профиль]  [ЛС] 
Показать сообщения:    
Ответить на тему

Текущее время: 23-Окт 11:17

Часовой пояс: UTC + 5



Вы не можете начинать темы
Вы не можете отвечать на сообщения
Вы не можете редактировать свои сообщения
Вы не можете удалять свои сообщения
Вы не можете голосовать в опросах
Вы не можете прикреплять файлы к сообщениям
Вы не можете скачивать файлы