Малышка / Baby (Нирадж Пандеу / Neeraj Pandey) [2015, Индия, Боевик, триллер, криминал, детектив, Web.Rip] (DVO : DeadSno & den904)

Ответить на тему
 

Davron1402 ®

Стаж: 3 года 8 месяцев

Сообщений: 136

Симпатии: 122

Малышка / Baby- Страна: Индия
Жанр: Боевик, триллер, криминал, детектив
Год выпуска: 2015
Продолжительность: 02:39:51
Перевод: Любительский (двухголосый закадровый) Доп. инфо о переводе DeadSno & den904
Cубтитры: русские (на песни)
Режиссер: Нирадж Пандеу / Neeraj Pandey
В ролях: Акшай Кумар, Таапси Панну, Анупам Кхер, Захари Соффин, Рана Даггубати, Дэнни Дензонгпа, Кэй Кэй Менон, Рашид Наз, Сушант Сингх, Каран Вахи
Описание: Секретная организация «Малышка» была создана в 2011 году из-за серий терактов, совершённых в Мумбаи 26 ноября 2008 года. Спец.группа включала в себя 12 высокопрофессиональных и обученных бойцов против терроризма. За 4 года существования организации, отряд предотвратил 24 крупных взрыва, поймал 13 самых разыскиваемых террористов и 8 боевиков. Основная сила отряда была направлена на подавление исламистских террористических организаций, таких как Лашкаре-Тайба и Индийские Моджахеды. Данный фильм повествует о последней секретной операции направленных против этих групп.-Качество видео:Web.Rip
Формат видео: AVI
Видео: xvid, 640 x 480 (4:3), 29.970 fps, 771 Kbps
Аудио:MPEG Audio, 44.1 KHz, 2 channels, 128 Kbps-

MediaInfo

Расположение: D:\KINO\Indiskie Kino\Malyshka.2015.avi
Имя файла: Malyshka.2015.avi
Формат файла: .avi (AVI)
Размер файла: 1.02 GB
Длительность: 2h 39mn
Навигация по главам: Нет
Bitrate (все потоки): 916 Kbps
...при помощи: Lavf51.12.1
Название: Malyshka.2015
Тип потока: Видео
Длительность: 02:39:51
Кодек: xvid
Кодек/ID: xvid
Размеры изображения: 640 x 480 (4:3)
Частота кадров: 29.970 fps
Размер потока: 881 MiB (84%)
Битрейт: 771 Kbps
Тип потока: Звук #1
Длительность: 02:39:51.902
Кодек: MPEG Audio
Кодек/Профиль: Layer 3
Кодек/ID: 55
Частота дискретизации: 44.1 KHz
Каналов: 2 channels
Битрейт: 128 Kbps
Битрейт/тип: Constant
Размер потока: 146 MiB (14%)
Метод сжатия: Lossy
Программа: LAME3.97

Скриншоты




Создавать темы 31-Мар-2015 20:04

[Профиль]  [ЛС] 

Davron1402 ®

Стаж: 3 года 8 месяцев

Сообщений: 136

Симпатии: 122

Админ почему мой релиз не работает?

Создавать темы 01-Апр-2015 16:19

[Профиль]  [ЛС] 
Показать сообщения:    
Ответить на тему

Текущее время: 24-Сен 11:54

Часовой пояс: UTC + 5



Вы не можете начинать темы
Вы не можете отвечать на сообщения
Вы не можете редактировать свои сообщения
Вы не можете удалять свои сообщения
Вы не можете голосовать в опросах
Вы не можете прикреплять файлы к сообщениям
Вы не можете скачивать файлы