(Rap) [CD] Чаян Фамали - Пламя - 2013, FLAC (tracks+.cue), lossless

Ответить на тему
 

dermoyader ®

Стаж: 5 лет 7 месяцев

Сообщений: 7

Симпатии: 10

Чаян Фамали / Пламя
Жанр: Rap
Носитель: CD
Страна-производитель диска: Россия
Год издания: 2013
Издатель (лейбл): Respect Production
Номер по каталогу: МТ 001091-360-01
Страна: Россия
Аудиокодек: FLAC (*.flac)
Тип рипа: tracks+.cue
Битрейт аудио: lossless
Продолжительность: 01:03:34
Наличие сканов в содержимом раздачи: да
Треклист:
01. Вера внутри меня
02. Крылья
03. Её тело
04. Головоломки
05. Сити
06. Нам пора прощаться
07. Мой друг
08. Всё в твоих руках
09. Ты мой кайф
10. Стану дымом
11. Фонари
12. Мёд и молоко
13. Инстинкт
14. Свадьба
15. На дне твоих глаз
16. Потерян и не найден
17. Полуголая
18. Rastafari

Лог создания рипа

Exact Audio Copy V1.0 beta 3 from 29. August 2011
Отчёт EAC об извлечении, выполненном 21. декабря 2013, 22:21
Чаян Фамали / Пламя
Дисковод: Optiarc DVD RW AD-7280S Adapter: 0 ID: 0
Режим чтения : Достоверность
Использование точного потока : Да
Отключение кэша аудио : Да
Использование указателей C2 : Нет
Коррекция смещения при чтении : 48
Способность читать области Lead-in и Lead-out : Нет
Заполнение пропущенных сэмплов тишиной : Да
Удаление блоков с тишиной в начале и конце : Нет
При вычислениях CRC использовались нулевые сэмплы : Да
Интерфейс : Встроенный Win32-интерфейс для Win NT/2000
Обработка зазоров : Добавлено к предыдущему треку
Выходной формат : Пользовательский кодировщик
Выбранный битрейт : 896 kBit/s
Качество : Высокий
Добавление ID3-тега : Нет
Утилита сжатия : C:\Program Files (x86)\FLAC\flac.exe
Дополнительные параметры : -V -8 -T "Genre=%genre%" -T "Artist=%artist%" -T "Title=%title%" -T "Album=%albumtitle%" -T "Date=%year%" -T "Tracknumber=%tracknr%" -T "Comment=%comment%" %source%
TOC извлечённого CD
Трек | Старт | Длительность | Начальный сектор | Конечный сектор
---------------------------------------------------------------------
1 | 0:00.00 | 3:33.04 | 0 | 15978
2 | 3:33.04 | 3:46.22 | 15979 | 32950
3 | 7:19.26 | 3:33.45 | 32951 | 48970
4 | 10:52.71 | 3:21.67 | 48971 | 64112
5 | 14:14.63 | 2:54.72 | 64113 | 77234
6 | 17:09.60 | 3:00.00 | 77235 | 90734
7 | 20:09.60 | 3:08.43 | 90735 | 104877
8 | 23:18.28 | 3:50.00 | 104878 | 122127
9 | 27:08.28 | 3:20.30 | 122128 | 137157
10 | 30:28.58 | 3:16.38 | 137158 | 151895
11 | 33:45.21 | 3:54.59 | 151896 | 169504
12 | 37:40.05 | 3:59.70 | 169505 | 187499
13 | 41:40.00 | 4:31.74 | 187500 | 207898
14 | 46:11.74 | 2:57.45 | 207899 | 221218
15 | 49:09.44 | 3:36.00 | 221219 | 237418
16 | 52:45.44 | 3:58.01 | 237419 | 255269
17 | 56:43.45 | 3:42.54 | 255270 | 271973
18 | 60:26.24 | 3:07.62 | 271974 | 286060
Трек 1
Имя файла H:\Чаян Фамали - Пламя\01 Вера внутри меня (музыка Артур AG).wav
Длина предзазора 0:00:02.00
Пиковый уровень 98.8 %
Скорость извлечения 2.2 X
Качество трека 100.0 %
CRC теста E04024D3
CRC копии E04024D3
Трек не обнаружен в базе AccurateRip
Копирование... OK
Трек 2
Имя файла H:\Чаян Фамали - Пламя\02 Крылья (музыка Артур AG).wav
Пиковый уровень 98.8 %
Скорость извлечения 2.5 X
Качество трека 100.0 %
CRC теста 4CA88469
CRC копии 4CA88469
Трек не обнаружен в базе AccurateRip
Копирование... OK
Трек 3
Имя файла H:\Чаян Фамали - Пламя\03 Её тело (музыка Артур AG).wav
Пиковый уровень 98.8 %
Скорость извлечения 2.7 X
Качество трека 100.0 %
CRC теста F32C76D0
CRC копии F32C76D0
Трек не обнаружен в базе AccurateRip
Копирование... OK
Трек 4
Имя файла H:\Чаян Фамали - Пламя\04 Головоломки (музыка Артур AG).wav
Пиковый уровень 98.8 %
Скорость извлечения 2.8 X
Качество трека 100.0 %
CRC теста A617AE6F
CRC копии A617AE6F
Трек не обнаружен в базе AccurateRip
Копирование... OK
Трек 5
Имя файла H:\Чаян Фамали - Пламя\05 Сити (музыка Артур AG).wav
Пиковый уровень 98.8 %
Скорость извлечения 2.4 X
Качество трека 99.9 %
CRC теста A3AC71F0
CRC копии A3AC71F0
Трек не обнаружен в базе AccurateRip
Копирование... OK
Трек 6
Имя файла H:\Чаян Фамали - Пламя\06 Нам пора прощаться (музыка Артур AG).wav
Пиковый уровень 98.8 %
Скорость извлечения 3.1 X
Качество трека 100.0 %
CRC теста A781AB33
CRC копии A781AB33
Трек не обнаружен в базе AccurateRip
Копирование... OK
Трек 7
Имя файла H:\Чаян Фамали - Пламя\07 Мой друг (музыка 4eu3).wav
Пиковый уровень 98.8 %
Скорость извлечения 2.8 X
Качество трека 99.9 %
CRC теста AD40B4EC
CRC копии AD40B4EC
Трек не обнаружен в базе AccurateRip
Копирование... OK
Трек 8
Имя файла H:\Чаян Фамали - Пламя\08 Всё в твоих руках (музыка Артур AG).wav
Пиковый уровень 98.8 %
Скорость извлечения 3.5 X
Качество трека 100.0 %
CRC теста 48AEED0D
CRC копии 48AEED0D
Трек не обнаружен в базе AccurateRip
Копирование... OK
Трек 9
Имя файла H:\Чаян Фамали - Пламя\09 Ты мой кайф (музыка Артур AG).wav
Пиковый уровень 98.8 %
Скорость извлечения 3.6 X
Качество трека 100.0 %
CRC теста 578F5CE2
CRC копии 578F5CE2
Трек не обнаружен в базе AccurateRip
Копирование... OK
Трек 10
Имя файла H:\Чаян Фамали - Пламя\10 Стану дымом (музыка Артур AG).wav
Пиковый уровень 98.8 %
Скорость извлечения 3.2 X
Качество трека 99.9 %
CRC теста AAC79D5A
CRC копии AAC79D5A
Трек не обнаружен в базе AccurateRip
Копирование... OK
Трек 11
Имя файла H:\Чаян Фамали - Пламя\11 Фонари (музыка Артур AG).wav
Пиковый уровень 98.8 %
Скорость извлечения 4.0 X
Качество трека 100.0 %
CRC теста B1C835FF
CRC копии B1C835FF
Трек не обнаружен в базе AccurateRip
Копирование... OK
Трек 12
Имя файла H:\Чаян Фамали - Пламя\12 Мёд и молоко (музыка Артур AG).wav
Пиковый уровень 98.8 %
Скорость извлечения 4.1 X
Качество трека 100.0 %
CRC теста 9E91AE6E
CRC копии 9E91AE6E
Трек не обнаружен в базе AccurateRip
Копирование... OK
Трек 13
Имя файла H:\Чаян Фамали - Пламя\13 Инстинкт (музыка Артур AG).wav
Пиковый уровень 100.0 %
Скорость извлечения 4.4 X
Качество трека 100.0 %
CRC теста 862906D0
CRC копии 862906D0
Трек не обнаружен в базе AccurateRip
Копирование... OK
Трек 14
Имя файла H:\Чаян Фамали - Пламя\14 Свадьба (музыка Артур AG).wav
Пиковый уровень 98.8 %
Скорость извлечения 3.6 X
Качество трека 99.9 %
CRC теста 496C60B8
CRC копии 496C60B8
Трек не обнаружен в базе AccurateRip
Копирование... OK
Трек 15
Имя файла H:\Чаян Фамали - Пламя\15 На дне твоих глаз (музыка Артур AG).wav
Пиковый уровень 98.8 %
Скорость извлечения 4.4 X
Качество трека 100.0 %
CRC теста 29E20D20
CRC копии 29E20D20
Трек не обнаружен в базе AccurateRip
Копирование... OK
Трек 16
Имя файла H:\Чаян Фамали - Пламя\16 Потерян и не найден (музыка Артур AG).wav
Пиковый уровень 98.8 %
Скорость извлечения 4.1 X
Качество трека 99.9 %
CRC теста F3EFC03C
CRC копии F3EFC03C
Трек не обнаружен в базе AccurateRip
Копирование... OK
Трек 17
Имя файла H:\Чаян Фамали - Пламя\17 Полуголая (музыка Артур AG).wav
Пиковый уровень 98.8 %
Скорость извлечения 4.7 X
Качество трека 100.0 %
CRC теста 0792D676
CRC копии 0792D676
Трек не обнаружен в базе AccurateRip
Копирование... OK
Трек 18
Имя файла H:\Чаян Фамали - Пламя\18 Rastafari (музыка Артур AG).wav
Пиковый уровень 98.8 %
Скорость извлечения 4.7 X
Качество трека 100.0 %
CRC теста 609682A0
CRC копии 609682A0
Трек не обнаружен в базе AccurateRip
Копирование... OK
Ни одного трека нет в базе AccurateRip
Ошибок не произошло
Конец отчёта
---- CUETools DB Plugin V2.1.3
[CTDB TOCID: TLmy4X00kSNLttqAV1f13Ue_SmM-] disk not present in database, Submit result: TLmy4X00kSNLttqAV1f13Ue_SmM- has been uploaded
==== Контрольная сумма отчёта E602BAC88CA2E27A3A1D0A23652EA896BA58FBDB8E42C92F0D78426AABBD7313 ====

Содержание индексной карты (.CUE)

REM GENRE Rap
REM DATE 2013
REM DISCID CE0EE612
REM COMMENT "ExactAudioCopy v1.0b3"
PERFORMER "Чаян Фамали"
TITLE "Пламя"
FILE "01 Вера внутри меня (музыка Артур AG).wav" WAVE
TRACK 01 AUDIO
TITLE "Вера внутри меня (музыка Артур AG)"
PERFORMER "Чаян Фамали"
INDEX 01 00:00:00
FILE "02 Крылья (музыка Артур AG).wav" WAVE
TRACK 02 AUDIO
TITLE "Крылья (музыка Артур AG)"
PERFORMER "Чаян Фамали"
INDEX 01 00:00:00
FILE "03 Её тело (музыка Артур AG).wav" WAVE
TRACK 03 AUDIO
TITLE "Её тело (музыка Артур AG)"
PERFORMER "Чаян Фамали"
INDEX 01 00:00:00
FILE "04 Головоломки (музыка Артур AG).wav" WAVE
TRACK 04 AUDIO
TITLE "Головоломки (музыка Артур AG)"
PERFORMER "Чаян Фамали"
INDEX 01 00:00:00
FILE "05 Сити (музыка Артур AG).wav" WAVE
TRACK 05 AUDIO
TITLE "Сити (музыка Артур AG)"
PERFORMER "Чаян Фамали"
INDEX 01 00:00:00
FILE "06 Нам пора прощаться (музыка Артур AG).wav" WAVE
TRACK 06 AUDIO
TITLE "Нам пора прощаться (музыка Артур AG)"
PERFORMER "Чаян Фамали"
INDEX 01 00:00:00
FILE "07 Мой друг (музыка 4eu3).wav" WAVE
TRACK 07 AUDIO
TITLE "Мой друг (музыка 4eu3)"
PERFORMER "Чаян Фамали"
INDEX 01 00:00:00
FILE "08 Всё в твоих руках (музыка Артур AG).wav" WAVE
TRACK 08 AUDIO
TITLE "Всё в твоих руках (музыка Артур AG)"
PERFORMER "Чаян Фамали"
INDEX 01 00:00:00
FILE "09 Ты мой кайф (музыка Артур AG).wav" WAVE
TRACK 09 AUDIO
TITLE "Ты мой кайф (музыка Артур AG)"
PERFORMER "Чаян Фамали"
INDEX 01 00:00:00
FILE "10 Стану дымом (музыка Артур AG).wav" WAVE
TRACK 10 AUDIO
TITLE "Стану дымом (музыка Артур AG)"
PERFORMER "Чаян Фамали"
INDEX 01 00:00:00
FILE "11 Фонари (музыка Артур AG).wav" WAVE
TRACK 11 AUDIO
TITLE "Фонари (музыка Артур AG)"
PERFORMER "Чаян Фамали"
INDEX 01 00:00:00
FILE "12 Мёд и молоко (музыка Артур AG).wav" WAVE
TRACK 12 AUDIO
TITLE "Мёд и молоко (музыка Артур AG)"
PERFORMER "Чаян Фамали"
INDEX 01 00:00:00
FILE "13 Инстинкт (музыка Артур AG).wav" WAVE
TRACK 13 AUDIO
TITLE "Инстинкт (музыка Артур AG)"
PERFORMER "Чаян Фамали"
INDEX 01 00:00:00
FILE "14 Свадьба (музыка Артур AG).wav" WAVE
TRACK 14 AUDIO
TITLE "Свадьба (музыка Артур AG)"
PERFORMER "Чаян Фамали"
INDEX 01 00:00:00
FILE "15 На дне твоих глаз (музыка Артур AG).wav" WAVE
TRACK 15 AUDIO
TITLE "На дне твоих глаз (музыка Артур AG)"
PERFORMER "Чаян Фамали"
INDEX 01 00:00:00
FILE "16 Потерян и не найден (музыка Артур AG).wav" WAVE
TRACK 16 AUDIO
TITLE "Потерян и не найден (музыка Артур AG)"
PERFORMER "Чаян Фамали"
INDEX 01 00:00:00
FILE "17 Полуголая (музыка Артур AG).wav" WAVE
TRACK 17 AUDIO
TITLE "Полуголая (музыка Артур AG)"
PERFORMER "Чаян Фамали"
INDEX 01 00:00:00
FILE "18 Rastafari (музыка Артур AG).wav" WAVE
TRACK 18 AUDIO
TITLE "Rastafari (музыка Артур AG)"
PERFORMER "Чаян Фамали"
INDEX 01 00:00:00

Лог проверки качества

Скриншот спектра частот

Создавать темы 31-Мар-2015 20:18

[Профиль]  [ЛС] 
Показать сообщения:    
Ответить на тему

Текущее время: 17-Дек 05:39

Часовой пояс: UTC + 5



Вы не можете начинать темы
Вы не можете отвечать на сообщения
Вы не можете редактировать свои сообщения
Вы не можете удалять свои сообщения
Вы не можете голосовать в опросах
Вы не можете прикреплять файлы к сообщениям
Вы не можете скачивать файлы