На дне (Галина Волчек) [1972, Драма, DVDRip]

Ответить на тему
 

lotto ®

Стаж: 7 лет 9 месяцев

Сообщений: 221

Симпатии: 409

На дне-- Жанр: Драма
Год выпуска: 1972
Продолжительность: 01:34:47 + 01:18:51--Режиссёр: Галина Волчек
В ролях: Е. Евстигнеев, И. Кваша, А. Мягков, В. Никулин, Л. Толмачёва, В. Хлевинский, А. Покровский, И. Дорошина, Г. Острин, В. Земляникин, Р. Суховерко, В. Миллиоти, А. Леонтьев, Л. Иванова--Описание:Экранизация спектакля «На дне» М. Горького. Фильм — спектакль в постановке Московского театра «Современник».
Рабочий Клещ, мечтающий о честном труде, и Пепел, жаждущий правильной жизни, и Актер, весь поглощенный воспоминаниями о своей былой славе, и Настя, страстно мечтающая о настоящей любви. Все эти люди - трагические жертвы уродливых и жестоких порядков, при которых человек перестает быть человеком и обречен влачить жалкое существование. Все они достойны лучшей участи. Тем трагичнее их положение сейчас...-- --Качество видео: DVDRip
Формат видео: AVI
Видео: DivX, 640x480, 1070 kbps, 25 fps
Аудио: MP3, 48 kHz, 2 ch, 128.00 kbps

MediaInfo

General
Complete name : \Na_dne_DVDRip\На дне. Часть 1.avi
Format : AVI
Format/Info : Audio Video Interleave
File size : 818 MiB
Duration : 1h 34mn
Overall bit rate : 1 207 Kbps
Writing application : VirtualDubModRus 1.5.10.2 (build 2542/release)
Writing library : VirtualDubMod build 2542/release
Video
ID : 0
Format : MPEG-4 Visual
Format settings, BVOP : 1
Format settings, QPel : No
Format settings, GMC : No warppoints
Format settings, Matrix : Default (H.263)
Muxing mode : Packed bitstream
Codec ID : DX50
Codec ID/Hint : DivX 5
Duration : 1h 34mn
Bit rate : 1 070 Kbps
Width : 640 pixels
Height : 480 pixels
Display aspect ratio : 4:3
Frame rate : 25.000 fps
Color space : YUV
Chroma subsampling : 4:2:0
Bit depth : 8 bits
Scan type : Progressive
Compression mode : Lossy
Bits/(Pixel*Frame) : 0.139
Stream size : 725 MiB (89%)
Writing library : DivX 6.8.3-6.8.4 (UTC 2008-06-07)
Audio
ID : 1
Format : MPEG Audio
Format version : Version 1
Format profile : Layer 3
Codec ID : 55
Codec ID/Hint : MP3
Duration : 1h 34mn
Bit rate mode : Constant
Bit rate : 128 Kbps
Channel(s) : 2 channels
Sampling rate : 48.0 KHz
Compression mode : Lossy
Stream size : 86.8 MiB (11%)
Alignment : Aligned on interleaves
Interleave, duration : 40 ms (1.00 video frame)
Interleave, preload duratio : 504 ms
Writing library : LAME3.97
Encoding settings : -m s -V 4 -q 2 -b 128

Скриншот c названием фильма

Скриншоты






Создавать темы 01-Апр-2015 12:52

[Профиль]  [ЛС] 
Показать сообщения:    
Ответить на тему

Текущее время: 20-Окт 15:44

Часовой пояс: UTC + 5



Вы не можете начинать темы
Вы не можете отвечать на сообщения
Вы не можете редактировать свои сообщения
Вы не можете удалять свои сообщения
Вы не можете голосовать в опросах
Вы не можете прикреплять файлы к сообщениям
Вы не можете скачивать файлы