Таинственная река / Mystic River (Клинт Иствуд / Clint Eastwood) [2003 г., Триллер, драма, криминал, детектив, BDRip 1080p] Dub+Eng (Sub Rus + Original Eng)

Ответить на тему
 

Jeneva ®

Стаж: 5 лет 7 месяцев

Сообщений: 47

Симпатии: 70

Таинственная река / Mystic River-«Мы хороним наши грехи, мы отмываемся от них дочиста»- Год выпуска: 2003
Страна: США, Австралия, Warner Bros. Pictures, Willage Roadshow Pictures
Жанр: Триллер, драма, криминал, детектив
Продолжительность: 02:17:56
Перевод: Профессиональный (полное дублирование)
Cубтитры: Русские, Английские--Режиссер: Клинт Иствуд / Clint Eastwood--В ролях: Шон Пенн, Тим Роббинс, Кевин Бэйкон, Лоуренс Фишборн, Марша Гей Харден, Лора Линни, Кевин Чэпмен, Том Гайри, Эмми Россум, Спенсер Трит Кларк, Эндрю Мэкин, Адам Нельсон, Роберт Уолберг, Дженни О’Хара, Джон Доумен, Камерон Бауэн, Джейсон Келли, Коннор Паоло, Майлз Хертер, Кейден Бойд, Тори Дэвис, Джонатан Того, Шоун Фитцгиббон, Уилл Лиман, Селин ду Тертре, Эри Грейнор, Забет Расселл, Джо Степлтон, Сьюзэн Уиллис, Хосе Рамон Росарио, Том Кемп, Чарли Бродерик, Лонни Фармер, Селеста Олива, Бейтс Уайлдер, Дугласс Бауэн Флинн, Билл Торпе, Мэтти Блейк, Кен Чизман, Скотт Уинтерс, Томас Дерра, Джим Смит, Патрик Ши.--Описание: Джимми Маркум, Дейвид Бойл и Шон Девин — неразлучные приятели с детства. Они вместе играют в хоккей, взрослея на знакомых неспокойных улицах Бостона. Уже во взрослом возрасте судьба сталкивает их вместе перед лицом трагедии: зверского убийства дочери Джимми Маркума — Кэтти.--Рейтинг КиноПоиска: 7.993 (43 860)
Рейтинг IMDB: 8.00 (296 871)
Возраст: зрителям, достигшим 16 лет
--Качество: BDRip 1080p
Формат: MKV
Видео кодек: AVC
Аудио кодек: AC3
Видео: 1920х800, 7 226 Кбит/сек, 23.976 кадр/сек, 2.40:1, AVC, x264, 0.196 Бит/(Пиксели*Кадры), 2-pass
Аудио №1: AC-3, 384 Кбит/сек, 6 канала(ов), 48,0 КГц - Дубляж
Аудио №2: AC-3, 640 Кбит/сек, 6 канала(ов), 48,0 КГц- Английский
Субтитры: UTF8
Навигация по главам: есть

Скриншоты





Знаете ли вы, что...


Фильм снят по мотивам романа Денниса Лихейна «Таинственная река» (Mystic River, 2001).
Съемки картины заняли 39 дней.
Клинту Иствуду принадлежит закадровый голос в рекламном ролике (трейлере) к фильму.
Деннис Лихэйн, автор романа «Таинственная река» получил эпизодическую роль в картине (камео). Он участвует в сцене парада, машет рукой, находясь в автомобиле с откидным верхом.
Фильм, который Дэйв смотрит по телевизору, носит название «Вампиры» (1998) с Джеймсом Вудсом и Шерил Ли в главных ролях.
Эпизодическая роль в картине досталась и Эли Уоллаху. Он сыграл владельца алкогольной лавки. Эли не принимал участия в фильмах Иствуда с момента выхода картины «Хороший, плохой, злой» (1966).
Фамилия Джимми и его семьи была изменена с Маркуса (первоисточник) на Маркум.
В начале фильма в эпизоде, в котором юного Дэйва бросают на заднее сидение автомобиля, человек впереди разворачивается и сверкает своим кольцом — кольцом священника. В книге нет ни малейшего упоминания о том, что этот персонаж был священником. Этот момент был намеренно добавлен в фильм после выяснения обстоятельств скандала, разгоревшегося в Бостонской епархии архиепископа. Ее глава, Бернард Ло, оказался замешанным в истории, связанной с умалчиванием случаев сексуальных домогательств со стороны священников.

Награды и номинации


2 приза Национального совета обозревателей - за фильм и главную мужскую роль (Шон Пенн - также за участие в картине «21 грамм»), 2 премии «Золотой сателлит» - за главную мужскую роль (Шон Пенн - также за участие в ленте «21 грамм») и за адаптированный сценарий, «Голубая лента» и приз «Кинема дзюнпо» за лучшую иностранную картину в Японии.
Оскар, 2004 год
Победитель (2):
Лучшая мужская роль (Шон Пенн)
Лучшая мужская роль второго плана (Тим Роббинс)
Номинации (4):
Лучший фильм
Лучшая женская роль второго плана (Марша Гэй Харден)
Лучший режиссер (Клинт Иствуд)
Лучший адаптированный сценарий
Золотой глобус, 2004 год
Победитель (2):
Лучшая мужская роль (драма) (Шон Пенн)
Лучшая мужская роль второго плана (Тим Роббинс)
Номинации (3):
Лучший фильм (драма)
Лучший режиссер (Клинт Иствуд)
Лучший сценарий
Британская академия, 2004 год
Номинации (4):
Лучшая мужская роль (Шон Пенн)
Лучшая мужская роль второго плана (Тим Роббинс)
Лучшая женская роль второго плана (Лора Линни)
Лучший адаптированный сценарий
Сезар, 2004 год
Победитель (1):
Лучший фильм на иностранном языке
Каннский кинофестиваль, 2003 год
Победитель (1):
Золотой наставник (Клинт Иствуд)
Номинации (1):
Золотая пальмовая ветвь
Европейская киноакадемия, 2003 год
Номинации (1):
Приз Screen International Award

Mediainfo

Format : Matroska
Format version : Version 4 / Version 2
File size : 7.95 GiB
Duration : 2h 17mn
Overall bit rate : 8 252 Kbps
Movie name : Таинственная река.2003.BDRip.1080p.[TAS-IX.NET]
Writing application : mkvmerge v6.2.0 ('Promised Land') built on Apr 28 2013 12:22:01
Writing library : libebml v1.3.0 + libmatroska v1.4.0
Video
ID : 1
Format : AVC
Format/Info : Advanced Video Codec
Format profile : [email protected]
Format settings, CABAC : Yes
Format settings, ReFrames : 5 frames
Codec ID : V_MPEG4/ISO/AVC
Duration : 2h 17mn
Bit rate : 7 226 Kbps
Width : 1 920 pixels
Height : 800 pixels
Display aspect ratio : 2.40:1
Frame rate mode : Constant
Frame rate : 23.976 fps
Color space : YUV
Chroma subsampling : 4:2:0
Bit depth : 8 bits
Scan type : Progressive
Bits/(Pixel*Frame) : 0.196
Stream size : 6.81 GiB (86%)
Title : Таинственная река.2003.BDRip.1080p.[TAS-IX.NET]
Writing library : x264 core 133 r2334 a3ac64b
Encoding settings : cabac=1 / ref=5 / deblock=1:0:0 / analyse=0x3:0x113 / me=umh / subme=11 / psy=1 / psy_rd=1.00:0.10 / mixed_ref=1 / me_range=32 / chroma_me=1 / trellis=2 / 8x8dct=1 / cqm=0 / deadzone=21,11 / fast_pskip=0 / chroma_qp_offset=-3 / threads=6 / lookahead_threads=1 / sliced_threads=0 / nr=0 / decimate=0 / interlaced=0 / bluray_compat=0 / constrained_intra=0 / bframes=5 / b_pyramid=2 / b_adapt=2 / b_bias=0 / direct=3 / weightb=1 / open_gop=0 / weightp=2 / keyint=240 / keyint_min=23 / scenecut=40 / intra_refresh=0 / rc_lookahead=60 / rc=2pass / mbtree=1 / bitrate=7226 / ratetol=1.0 / qcomp=0.60 / qpmin=0 / qpmax=69 / qpstep=4 / cplxblur=20.0 / qblur=0.5 / ip_ratio=1.40 / aq=1:0.95
Language : English
Default : Yes
Forced : No
Audio #1
ID : 2
Format : AC-3
Format/Info : Audio Coding 3
Mode extension : CM (complete main)
Format settings, Endianness : Big
Codec ID : A_AC3
Duration : 2h 17mn
Bit rate mode : Constant
Bit rate : 384 Kbps
Channel(s) : 6 channels
Channel positions : Front: L C R, Side: L R, LFE
Sampling rate : 48.0 KHz
Bit depth : 16 bits
Compression mode : Lossy
Stream size : 379 MiB (5%)
Title : Дублированный
Language : Russian
Default : Yes
Forced : No
Audio #2
ID : 3
Format : AC-3
Format/Info : Audio Coding 3
Mode extension : CM (complete main)
Format settings, Endianness : Big
Codec ID : A_AC3
Duration : 2h 17mn
Bit rate mode : Constant
Bit rate : 640 Kbps
Channel(s) : 6 channels
Channel positions : Front: L C R, Side: L R, LFE
Sampling rate : 48.0 KHz
Bit depth : 16 bits
Compression mode : Lossy
Stream size : 631 MiB (8%)
Title : Английский
Language : English
Default : No
Forced : No
Text #1
ID : 4
Format : UTF-8
Codec ID : S_TEXT/UTF8
Codec ID/Info : UTF-8 Plain Text
Title : Русские
Language : Russian
Default : No
Forced : No
Text #2
ID : 5
Format : UTF-8
Codec ID : S_TEXT/UTF8
Codec ID/Info : UTF-8 Plain Text
Title : Английские
Language : English
Default : No
Forced : No
Menu
00:00:00.000 : en:Three Friends
00:03:18.490 : en:Driven Away
00:06:07.784 : en:A Boy's Ordeal
00:08:05.902 : en:Someone's Father
00:12:21.616 : en:One of These Days
00:14:36.542 : en:Covered in Blood
00:18:38.409 : en:Missing
00:23:32.077 : en:World of Hurt
00:28:04.850 : en:Collected Marker
00:32:45.630 : en:My Daughter in There?!?
00:35:03.852 : en:Katie's Look
00:40:37.226 : en:Jimmy's Look; Lauren's Call
00:42:41.601 : en:Domestic Responsibilities
00:47:00.943 : en:Crying for Katie
00:51:26.792 : en:Questioning Brendan
00:53:58.277 : en:Getting My Head Right
01:00:09.481 : en:Serious Look at Dave
01:05:17.372 : en:Beloved Daughter
01:07:59.492 : en:Celeste in a Hurry
01:10:52.874 : en:Speaking for Katie
01:15:30.901 : en:The Liquor Store
01:17:22.555 : en:Like Vampires
01:23:14.990 : en:From Friend to Liability
01:26:24.262 : en:Bloody Explanation
01:30:53.573 : en:Hits Keep on Coming
01:36:32.537 : en:What Celeste Thinks
01:40:12.089 : en:Questioning Brendan
01:42:46.118 : en:The 911 Call
01:45:33.452 : en:Drinks With Dave
01:49:29.688 : en:No More Secrets
01:55:41.309 : en:"I Want Him Dead!"
01:57:36.675 : en:We Bury Our Sins
02:00:10.787 : en:The Last Time I Saw Dave
02:05:49.500 : en:The King's Wife
02:10:15.891 : en:Passing Parade
02:12:52.840 : en:End Credits

x264

x264 [info]: frame I:1503 Avg QP:15.06 size:158627
x264 [info]: frame P:43539 Avg QP:18.14 size: 66934
x264 [info]: frame B:153402 Avg QP:19.66 size: 28179

Создавать темы 01-Апр-2015 12:57

[Профиль]  [ЛС] 
Показать сообщения:    
Ответить на тему

Текущее время: 23-Сен 01:46

Часовой пояс: UTC + 5



Вы не можете начинать темы
Вы не можете отвечать на сообщения
Вы не можете редактировать свои сообщения
Вы не можете удалять свои сообщения
Вы не можете голосовать в опросах
Вы не можете прикреплять файлы к сообщениям
Вы не можете скачивать файлы