Почти смешная история (Пётр Фоменко) [1977, лирическая комедия, DVDRip-AVC]

Ответить на тему
 

lotto ®

Стаж: 7 лет 7 месяцев

Сообщений: 221

Симпатии: 409

Почти смешная история-- Жанр: лирическая комедия
Год выпуска: 1977
Продолжительность: 01:08:50 + 01:14:22--Режиссёр: Пётр Фоменко
В ролях: Ольга Антонова, Людмила Аринина, Михаил Глузский, Михаил Данилов, Мария Великанова, Владимир Пучков, Светлана Харитонова, Валентин Гафт, Людмила Полякова, Мария Миронова, Зинаида Дьяконова, Андрей Думиника, Расми (Рамзес) Джабраилов, Борис Бреев, Борис Лёскин, Николай Мокин, Леонид Плешаков, Николай Пеньков, Наталья Назарова, Всеволод Титов, Татьяна Канунникова, Лев Дубов, Николай Шацкий, Михаил Еремеев, Валентин Козачков, Игорь Шелюгин, Владимир Ванышев--Описание: Лирическая история с элементами комедии о пробуждения чувств у двух немолодых людей, давно смирившихся со своим одиночеством. Две сестры приезжают в маленький город на Волге отдохнуть. Одной - около пятидесяти, другая чуть моложе. На вокзале они знакомятся с самым обычным командировочным, который оказывается с ними в одной гостинице и совершенно не понимает, что младшая из сестер, немного чудаковатая, влюбилась в него с первого взгляда. Но всё ещё может измениться...-- --Качество видео: DVDRip-AVC
Формат видео: MKV
Видео: H.264, [email protected], 1367 kbps, 25 fps
Аудио: AC3, 2 ch, 48 KHz, 256 Kbps

MediaInfo

General
Unique ID : 105891110881381612137358260736887364776 (0x4FA9E2D95B1DD0F0C0E8A2B347281CA8)
Complete name : \Почти смешная история (AVC)\pochti.e01.mkv
Format : Matroska
Format version : Version 2
File size : 815 MiB
Duration : 1h 8mn
Overall bit rate : 1 656 Kbps
Encoded date : UTC 2012-08-12 06:00:30
Writing application : mkvmerge v5.7.0 ('The Whirlwind') built on Jul 8 2012 19:12:28
Writing library : libebml v1.2.2 + libmatroska v1.3.0
Video
ID : 1
Format : AVC
Format/Info : Advanced Video Codec
Format profile : [email protected]
Format settings, CABAC : Yes
Format settings, ReFrames : 8 frames
Codec ID : V_MPEG4/ISO/AVC
Duration : 1h 8mn
Bit rate : 1 367 Kbps
Width : 702 pixels
Height : 568 pixels
Display aspect ratio : 4:3
Frame rate mode : Constant
Frame rate : 25.000 fps
Color space : YUV
Chroma subsampling : 4:2:0
Bit depth : 8 bits
Scan type : Progressive
Bits/(Pixel*Frame) : 0.137
Stream size : 673 MiB (83%)
Writing library : x264 core 125 r2208 d9d2288
Encoding settings : cabac=1 / ref=8 / deblock=1:-1:-1 / analyse=0x3:0x133 / me=umh / subme=10 / psy=1 / psy_rd=1.00:0.15 / mixed_ref=1 / me_range=24 / chroma_me=1 / trellis=2 / 8x8dct=1 / cqm=0 / deadzone=21,11 / fast_pskip=1 / chroma_qp_offset=-3 / threads=2 / lookahead_threads=1 / sliced_threads=0 / nr=0 / decimate=1 / interlaced=0 / bluray_compat=0 / constrained_intra=0 / bframes=8 / b_pyramid=2 / b_adapt=2 / b_bias=0 / direct=3 / weightb=1 / open_gop=0 / weightp=2 / keyint=250 / keyint_min=25 / scenecut=40 / intra_refresh=0 / rc=crf / mbtree=0 / crf=18.0 / qcomp=0.60 / qpmin=0 / qpmax=69 / qpstep=4 / ip_ratio=1.40 / pb_ratio=1.30 / aq=1:1.00
Language : Russian
Default : Yes
Forced : No
Audio
ID : 2
Format : AC-3
Format/Info : Audio Coding 3
Mode extension : CM (complete main)
Format settings, Endianness : Big
Codec ID : A_AC3
Duration : 1h 8mn
Bit rate mode : Constant
Bit rate : 256 Kbps
Channel(s) : 2 channels
Channel positions : Front: L R
Sampling rate : 48.0 KHz
Bit depth : 16 bits
Compression mode : Lossy
Stream size : 126 MiB (15%)
Language : Russian
Default : Yes
Forced : No

Скриншот c названием фильма

Скриншоты






Создавать темы 01-Апр-2015 13:15

[Профиль]  [ЛС] 
Показать сообщения:    
Ответить на тему

Текущее время: 18-Авг 19:39

Часовой пояс: UTC + 5



Вы не можете начинать темы
Вы не можете отвечать на сообщения
Вы не можете редактировать свои сообщения
Вы не можете удалять свои сообщения
Вы не можете голосовать в опросах
Вы не можете прикреплять файлы к сообщениям
Вы не можете скачивать файлы