Меч дракона / Dragon blade (Дэниэл Ли) [2015, Китай, боевик, драма, приключения, TeleCine] (MVO)

Ответить на тему
 

Felon ®

Стаж: 2 года 8 месяцев

Сообщений: 11

Симпатии: 14

Меч дракона / Dragon blade

Страна: Китай
Жанр: боевик, драма, приключения
Год выпуска: 2015
Продолжительность: 02:07:02
Перевод: любительский (двухголосый )
Cубтитры: Английские, китайские (вшитые)
Режиссер: Дэниэл Ли
В ролях: Джеки Чан, Джон Кьюсак, Эдриан Броуди, Шарни Винсон, Линь Пэн, Бенни Уркидез, Чхве Ши Вон, Темур Мамисашвили, Томер Оз, Кевин Ли...
Описание: Действие фильма разворачивается в Древнем Китае во времена правления династии Хань. Римский полководец Луция с легионом своих солдат оказывается на территории Китая. В это же время командир отряда охраны Западного региона Хо Ань в результате предательства своих врагов становится рабом. И этим двум воинам было суждено встретиться в Западной пустыне, где развернётся эпическое сражение. Однако биться они будут не друг против друга, как можно было бы подумать, а против алчного императора Тиберия за суверенитет Китая.
Качество видео: TeleCine
Формат видео: AVI
Видео: XviD 720x304 (2.35:1), 23.976 fps, XviD build 65 ~ 1501 kbps avg, 0.286 bit/pixel
Аудио: AC3 48.00 kHz, AC3 Dolby Digital, 2/0 (L,R) ch, ~128.00 kbps avg

MediaInfo

General
Complete name : C:\Users\Наталья\Favorites\Downloads\Me4.Dr4k0n4.2015.P.TeleCine.1400MB.Ooops.avi
Format : AVI
Format/Info : Audio Video Interleave
File size : 1.45 GiB
Duration : 2h 7mn
Overall bit rate : 1 638 Kbps
Writing application : VirtualDubMod 1.5.10.2 (build 2540/release)
Writing library : VirtualDubMod build 2540/release
Video
ID : 0
Format : MPEG-4 Visual
Format profile : Advanced [email protected]
Format settings, BVOP : Yes
Format settings, QPel : No
Format settings, GMC : No warppoints
Format settings, Matrix : Custom
Codec ID : XVID
Codec ID/Hint : XviD
Duration : 2h 7mn
Bit rate : 1 501 Kbps
Width : 720 pixels
Height : 304 pixels
Display aspect ratio : 2.35:1
Frame rate : 23.976 fps
Color space : YUV
Chroma subsampling : 4:2:0
Bit depth : 8 bits
Scan type : Progressive
Bits/(Pixel*Frame) : 0.286
Stream size : 1.33 GiB (92%)
Writing library : XviD 1.2.1 (UTC 2008-12-04)
Audio
ID : 1
Format : AC-3
Format/Info : Audio Coding 3
Mode extension : CM (complete main)
Codec ID : 2000
Duration : 2h 7mn
Bit rate mode : Constant
Bit rate : 128 Kbps
Channel(s) : 2 channels
Channel positions : Front: L R
Sampling rate : 48.0 KHz
Bit depth : 16 bits
Stream size : 116 MiB (8%)
Alignment : Split accross interleaves
Interleave, duration : 42 ms (1.00 video frame)
Interleave, preload duration : 500 ms

Скриншоты





Последний раз редактировалось: Felon (2015-04-03 23:00), всего редактировалось 3 раз(а)

Создавать темы 01-Апр-2015 19:32

[Профиль]  [ЛС] 

Felon ®

Стаж: 2 года 8 месяцев

Сообщений: 11

Симпатии: 14

все вроде правильно, может чуток погодя пойдет раздача

Создавать темы 01-Апр-2015 20:02

[Профиль]  [ЛС] 

Felon ®

Стаж: 2 года 8 месяцев

Сообщений: 11

Симпатии: 14

во пошла! раздам ночью

Создавать темы 01-Апр-2015 20:05

[Профиль]  [ЛС] 

Felon ®

Стаж: 2 года 8 месяцев

Сообщений: 11

Симпатии: 14

ребята, вы зачем жмете кнопку "позвать скачавших"?! я же один, только залил

Создавать темы 01-Апр-2015 23:51

[Профиль]  [ЛС] 

Felon ®

Стаж: 2 года 8 месяцев

Сообщений: 11

Симпатии: 14

а нет кто-то скачал уже один раз

Создавать темы 01-Апр-2015 23:56

[Профиль]  [ЛС] 

Machine

Стаж: 5 лет 3 месяца

Сообщений: 209

Симпатии: 68

Felon, Здесь Любительский двухголосый перевод. Проверенно.

Создавать темы 02-Апр-2015 16:14

[Профиль]  [ЛС] 

Felon ®

Стаж: 2 года 8 месяцев

Сообщений: 11

Симпатии: 14

Machine, ммм я не посмотрел извиняюсь или что-то напутал. ну фильм норм стоит смотреть?

Создавать темы 02-Апр-2015 20:49

[Профиль]  [ЛС] 

Топик был перенесен из форума Фильмы за 2015 в форум Азиатские фильмы
Grock

Создавать темы 03-Апр-2015 23:00

 
Показать сообщения:    
Ответить на тему

Текущее время: 22-Ноя 16:05

Часовой пояс: UTC + 5



Вы не можете начинать темы
Вы не можете отвечать на сообщения
Вы не можете редактировать свои сообщения
Вы не можете удалять свои сообщения
Вы не можете голосовать в опросах
Вы не можете прикреплять файлы к сообщениям
Вы не можете скачивать файлы