В чем дело, док? / What's Up, Doc? (Питер Богданович) [1972, США, комедия, BDRip] 3x(MVO)

Ответить на тему
 

lotto ®

Стаж: 7 лет 9 месяцев

Сообщений: 221

Симпатии: 409

В чем дело, док? / What's Up, Doc?
«A screwball comedy. Remember them?»
-- Страна: США
Жанр: комедия
Год выпуска: 1972
Продолжительность: 01:33:50
Перевод: Профессиональный (многоголосый закадровый)
Cубтитры: нет--Режиссер: Питер Богданович
В ролях: Барбра Стрейзанд, Райан О’Нил, Мэдлин Кан, Кеннет Марс, Остин Пендлтон, Майкл Мерфи, Филип Рот, Соррел Бук, Стефан Гираш, Мэйбл Альбертсон, Лиам Данн, Джон Хиллерман, Джордж Морфоген, Грэм Джарвис, Рэнди Куэйд, М. Эммет Уолш, Кевин О’Нил--Описание: Действие происходит в отеле, где чемоданы с различным содержимым путешествуют из номера в номер благодаря неловким шпионам и незадачливым грабителям. В результате перемешиваются бриллианты, секретные документы, белье и… камни. Заканчивается все это пожаром и уморительной погоней по городским улицам…-- --Качество видео: BDRip
Формат видео: AVI
Видео: XviD, 688x384, 1638 kbps, 23.976 fps
Аудио: AC3, 48 kHz, 2 ch, 192 kbps (русский, многоголосый)
Аудио 2: AC3, 48 kHz, 2 ch, 192 kbps (русский, многоголосый)
Аудио 3: AC3, 48 kHz, 2 ch, 192 kbps (русский, многоголосый)

MediaInfo

General
Complete name : \Whats.Up.Doc.1972.bdrip_[1.46].avi
Format : AVI
Format/Info : Audio Video Interleave
File size : 1.46 GiB
Duration : 1h 33mn
Overall bit rate : 2 233 Kbps
Writing application : VirtualDubMod 1.5.10.3 | www.virtualdub-fr.org || (build 2550/release)
Writing library : VirtualDubMod build 2550/release
Video
ID : 0
Format : MPEG-4 Visual
Format profile : Advanced [email protected]
Format settings, BVOP : 2
Format settings, QPel : No
Format settings, GMC : No warppoints
Format settings, Matrix : Custom
Codec ID : XVID
Codec ID/Hint : XviD
Duration : 1h 33mn
Bit rate : 1 638 Kbps
Width : 688 pixels
Height : 384 pixels
Display aspect ratio : 16:9
Frame rate : 23.976 fps
Color space : YUV
Chroma subsampling : 4:2:0
Bit depth : 8 bits
Scan type : Progressive
Compression mode : Lossy
Bits/(Pixel*Frame) : 0.259
Stream size : 1.07 GiB (73%)
Writing library : XviD 63
Audio #1
ID : 1
Format : AC-3
Format/Info : Audio Coding 3
Mode extension : CM (complete main)
Format settings, Endianness : Big
Codec ID : 2000
Duration : 1h 33mn
Bit rate mode : Constant
Bit rate : 192 Kbps
Channel(s) : 2 channels
Channel positions : Front: L R
Sampling rate : 48.0 KHz
Bit depth : 16 bits
Compression mode : Lossy
Stream size : 129 MiB (9%)
Alignment : Split accross interleaves
Interleave, duration : 42 ms (1.00 video frame)
Interleave, preload duratio : 500 ms
Audio #2
ID : 2
Format : AC-3
Format/Info : Audio Coding 3
Mode extension : CM (complete main)
Format settings, Endianness : Big
Codec ID : 2000
Duration : 1h 33mn
Bit rate mode : Constant
Bit rate : 192 Kbps
Channel(s) : 2 channels
Channel positions : Front: L R
Sampling rate : 48.0 KHz
Bit depth : 16 bits
Compression mode : Lossy
Stream size : 129 MiB (9%)
Alignment : Split accross interleaves
Interleave, duration : 42 ms (1.00 video frame)
Interleave, preload duratio : 500 ms
Audio #3
ID : 3
Format : AC-3
Format/Info : Audio Coding 3
Mode extension : CM (complete main)
Format settings, Endianness : Big
Codec ID : 2000
Duration : 1h 33mn
Bit rate mode : Constant
Bit rate : 192 Kbps
Channel(s) : 2 channels
Channel positions : Front: L R
Sampling rate : 48.0 KHz
Bit depth : 16 bits
Compression mode : Lossy
Stream size : 129 MiB (9%)
Alignment : Split accross interleaves
Interleave, duration : 42 ms (1.00 video frame)
Interleave, preload duratio : 500 ms

Скриншот c названием фильма

Скриншоты





Создавать темы 03-Апр-2015 09:55

[Профиль]  [ЛС] 
Показать сообщения:    
Ответить на тему

Текущее время: 23-Окт 00:23

Часовой пояс: UTC + 5



Вы не можете начинать темы
Вы не можете отвечать на сообщения
Вы не можете редактировать свои сообщения
Вы не можете удалять свои сообщения
Вы не можете голосовать в опросах
Вы не можете прикреплять файлы к сообщениям
Вы не можете скачивать файлы