Не брать живым / Green Zone (Пол Гринграсс) [2009, Франция, США, Испания, Великобритания, боевик, триллер, драма, военный, DVDRip] (Dub)

Ответить на тему
 

Davron1402 ®

Стаж: 3 года 8 месяцев

Сообщений: 136

Симпатии: 122

Не брать живым / Green Zone- Страна: Франция, США, Испания, Великобритания
Жанр: боевик, триллер, драма, военный
Год выпуска: 2009
Продолжительность: 01:54:46
Перевод: Профессиональный (дублированный)
Cубтитры: нет
Режиссер: Пол Гринграсс
В ролях: Мэтт Дэймон
Джейсон Айзекс
Грег Киннер
Эми Райан
Брендан Глисон
Никойе Бэнкс
Джерри Делла Салла
Шон Хьюз
Майкл О’Нил
Энтони Короне
Описание: В «Зелёной зоне» оккупированного Ирака — территории, находящейся под контролем армии Соединенных Штатов — агенты ЦРУ тщетно ищут следы оружия массового поражения. Необъективность расследования становится очевидной офицеру Рою Миллеру, попытавшемуся предать огласке полученные результаты. Но как далеко могут зайти генералы, решившие во что бы то ни стало навести порядок в нестабильном регионе?
Доп. информация:
Сценарий: Брайан Хелгеленд, Раджив Чандрасекаран
Продюсер: Тим Беван, Эрик Феллнер, Пол Гринграсс
Оператор: Бэрри Экройд
Композитор: Джон Пауэлл
Художник: Доминик Уоткинс, Хуан Педро Де Гаспар, Сэмми Шелдон
Монтаж: Кристофер Раус-Качество видео: DVDRip
Формат видео: mp4 (MPEG-4)
Видео: AVC, 853 x 360 (2.35:1), 25.000 fps, 512 Kbps
Аудио: AAC, 44.1 KHz, 2 channels, 128 Kbps- IMDb: 6.90

MediaInfo

Расположение: D:\KINO\Не брать живым.mp4
Имя файла: Не брать живым.mp4
Формат файла: .mp4 (MPEG-4)
Размер файла: 529.17 MB
Длительность: 1h 54mn
Навигация по главам: Нет
Bitrate (все потоки): 645 Kbps
Тип битрейта (все потоки): Variable
...при помощи: Lavf55.12.0
Исполнитель: kingsize87 (Blu-ray Disc 1080p)
Название: kingsize87 (Blu-ray Disc 1080p)
Тип потока: Альбом
Комментарий: 15.07.2010
Авторские права: HQCLUB (www.hqclub.net)
Тип потока: Видео
Длительность: 01:54:46
Кодек: AVC
Кодек/Профиль: [email protected]
Кодек/ID: avc1
Кодек/CABAC: Yes
Кодек/ReFrames: 4 frames
Размеры изображения:853 x 360 (2.35:1)
Частота кадров: 25.000 fps
Размер потока: 418 MiB (79%)
Битрейт: 512 Kbps
Библиотека кодирования: x264 core 132
Цветовое пространство: YUV
Тип развёртки: Progressive
Глубина: 8 bits
Тип потока: Звук #1
Длительность: 01:54:39.473
Кодек: AAC
Кодек/Профиль: LC
Кодек/ID: 40
Частота дискретизации: 44.1 KHz
Каналов: 2 channels
Битрейт: 128 Kbps
Битрейт/тип: Variable
Размер потока: 105 MiB (20%)
Метод сжатия: Lossy

Скриншоты



Создавать темы 03-Апр-2015 18:32

[Профиль]  [ЛС] 
Показать сообщения:    
Ответить на тему

Текущее время: 25-Сен 14:49

Часовой пояс: UTC + 5



Вы не можете начинать темы
Вы не можете отвечать на сообщения
Вы не можете редактировать свои сообщения
Вы не можете удалять свои сообщения
Вы не можете голосовать в опросах
Вы не можете прикреплять файлы к сообщениям
Вы не можете скачивать файлы