Олимп / Olympus / Сезон: 1 / Серии: 1-8 из 13 (Аманда Таппинг, Ник Уиллинг) [2015, фэнтези, HDTVRip] (MVO : BaibaKo.tv) (Original) + (MVO : Jaskier)

Ответить на тему
 

emilsky ®

Стаж: 7 лет 5 месяцев

Сообщений: 2237

Симпатии: 610

Олимп / Olympus
Год выпуска: 2015
Страна: Великобритания, Канада
Жанр: фэнтези
Продолжительность: 00:43:10
Перевод: Профессиональный многоголосый закадровый Доп. инфо о переводе BaibaKo.tv
Русские субтитры: нет
Режиссёр: Аманда Таппинг, Ник Уиллинг
В ролях: Том Йорк, Сонита Генри, Уэйн Барнс, Грэхэм Шилз, Кэс Анвар, Мэтт Фрюэр, Джон Эммет Трэйси, Софиа Локлин Херт, Леви Миден, Дэвид Франко, Полин Иган
Описание: Несколько храбрых мужчин и женщин изгнали богов в потусторонний мир ─ место, названное Подземным Миром или Царством Аида. В 2015 г. до нашей эры один неопытный молодой человек отправляется спасать оракула храма Геи. Ему предстоит испытать любовь, предательство, разочарование и изгнание. Пройдя тяжелый путь, он превращается в безжалостного лидера, чету самим богам.
Качество: HDTVRip
Формат: AVI
Видео кодек: XviD
Аудио кодек: MP3
Видео: ~ 1500 Кбит/с, 720x400
Аудио: 2 ch, 192 Кбит/с
Аудио 2: 2 ch, 192 Кбит/с

MediaInfo

e:\Сериалы\Олимп\Olympus.s01e01.HDTVRip.XviD.Rus.Eng.BaibaKo.tv.avi
General
Complete name : e:\Сериалы\Олимп\Olympus.s01e01.HDTVRip.XviD.Rus.Eng.BaibaKo.tv.avi
Format : AVI
Format/Info : Audio Video Interleave
File size : 590 MiB
Duration : 43mn 10s
Overall bit rate : 1 911 Kbps
Writing application : VirtualDubMod 1.5.10.2 (build 2540/release)
Writing library : VirtualDubMod build 2540/release
Video #0
ID : 0
Format : MPEG-4 Visual
Format profile : Advanced [email protected]
Format settings, BVOP : 2
Format settings, QPel : No
Format settings, GMC : No warppoints
Format settings, Matrix : Default (H.263)
Codec ID : XVID
Codec ID/Hint : XviD
Duration : 43mn 10s
Bit rate : 1 514 Kbps
Width : 720 pixels
Height : 400 pixels
Display aspect ratio : 16:9
Frame rate : 23.976 fps
Color space : YUV
Chroma subsampling : 4:2:0
Bit depth : 8 bits
Scan type : Progressive
Compression mode : Lossy
Bits/(Pixel*Frame) : 0.219
Stream size : 467 MiB (79%)
Writing library : XviD 1.2.1 (UTC 2008-12-04)
Audio #1
ID : 1
Format : MPEG Audio
Format version : Version 1
Format profile : Layer 3
Mode : Joint stereo
Mode extension : MS Stereo
Codec ID : 55
Codec ID/Hint : MP3
Duration : 43mn 10s
Bit rate mode : Constant
Bit rate : 192 Kbps
Channel(s) : 2 channels
Sampling rate : 48.0 KHz
Compression mode : Lossy
Stream size : 59.3 MiB (10%)
Alignment : Aligned on interleaves
Interleave, duration : 42 ms (1.00 video frame)
Interleave, preload duration : 504 ms
Audio #2
ID : 2
Format : MPEG Audio
Format version : Version 1
Format profile : Layer 3
Mode : Joint stereo
Mode extension : MS Stereo
Codec ID : 55
Codec ID/Hint : MP3
Duration : 43mn 10s
Bit rate mode : Constant
Bit rate : 192 Kbps
Channel(s) : 2 channels
Sampling rate : 48.0 KHz
Compression mode : Lossy
Stream size : 59.3 MiB (10%)
Alignment : Aligned on interleaves
Interleave, duration : 42 ms (1.00 video frame)
Interleave, preload duration : 504 ms

Скриншоты



Последний раз редактировалось: emilsky (2015-06-04 06:04), всего редактировалось 5 раз(а)

Создавать темы 04-Апр-2015 02:38

[Профиль]  [ЛС] 

SNation

Стаж: 4 года 8 месяцев

Сообщений: 81

Симпатии: 70

Посмотрим, спасибо=)!

Создавать темы 04-Апр-2015 08:36

[Профиль]  [ЛС] 

петр60

Стаж: 6 лет

Сообщений: 151

Симпатии: 9

большое спасибо хороший фильм!

Создавать темы 11-Апр-2015 16:48

[Профиль]  [ЛС] 

emilsky ®

Стаж: 7 лет 5 месяцев

Сообщений: 2237

Симпатии: 610

2 серия!

Создавать темы 12-Апр-2015 07:13

[Профиль]  [ЛС] 

Semen

Стаж: 7 лет

Сообщений: 87

Симпатии: 7

Что-то рейтинг низкий 4,4.

Создавать темы 12-Апр-2015 09:57

[Профиль]  [ЛС] 

PupuseG

Стаж: 5 лет 2 месяца

Сообщений: 514

Симпатии: 64

Semen, 22 человека сделали такой рейтинг, это не заметили?

Создавать темы 12-Апр-2015 11:31

[Профиль]  [ЛС] 

emilsky ®

Стаж: 7 лет 5 месяцев

Сообщений: 2237

Симпатии: 610

3 серия!

Создавать темы 19-Апр-2015 08:48

[Профиль]  [ЛС] 

emilsky ®

Стаж: 7 лет 5 месяцев

Сообщений: 2237

Симпатии: 610

4 серия!

Создавать темы 28-Апр-2015 06:09

[Профиль]  [ЛС] 

lector_87

Стаж: 3 года 10 месяцев

Сообщений: 391

Симпатии: 348

как сериальчик интересный стоит смотреть

Создавать темы 15-Май-2015 14:20

[Профиль]  [ЛС] 

emilsky ®

Стаж: 7 лет 5 месяцев

Сообщений: 2237

Симпатии: 610

обновлено до 8 серии в озвучке от Jaskier, байбаки видимо отошли от дел как это у них уже в привычку вошло

Создавать темы 04-Июн-2015 06:05

[Профиль]  [ЛС] 
Показать сообщения:    
Ответить на тему

Текущее время: 12-Дек 15:18

Часовой пояс: UTC + 5



Вы не можете начинать темы
Вы не можете отвечать на сообщения
Вы не можете редактировать свои сообщения
Вы не можете удалять свои сообщения
Вы не можете голосовать в опросах
Вы не можете прикреплять файлы к сообщениям
Вы не можете скачивать файлы