Игрок / The Gambler [2014, триллер, драма, криминал, HDRip][Лицензия]

Ответить на тему
 

Fury_ ®

Стаж: 2 года 9 месяцев

Сообщений: 22

Симпатии: 14

-Игрок / The Gambler- Страна: США--Жанр: Триллер, драма, криминал--Год выпуска: 2014--Продолжительность: 01:50:58--Режиссёр: Руперт Уайатт--Перевод:Дублированное [Лицензия]--В ролях: Марк Уолберг, Джон Гудман, Бри Ларсон, Майкл Кеннет Уильямс, Джессика Лэнг, Гриффин Кливлэнд, Омар Лейва, Энтони Келли, Стив Парк, Эмори Коэн--Описание: Джим Беннетт — рисковый парень. Днем он — гениальный писатель и отличный преподаватель, ночью — заядлый игрок. Он глубоко увяз в мире, где закон — пустой звук, и однажды ставит на кон все, включая собственную жизнь. Те, кому он должен, опасны, а помочь ему может только тот, кто еще опаснее. Достоин ли второго шанса человек, проигравший самого себя? А, если да, то — во сколько это ему обойдется?-- 
--Качество видео: HDRip--Формат видео: AVI--Видео: XviD, 1306 Кбит/с,--Аудио: AC3, 6 ch, 448 Кбит/с--

MediaInfo

General
Complete name : E:\1gr0cheLL0.2014.D.HDRip.1400MB.avi
Format : AVI
Format/Info : Audio Video Interleave
File size : 1.37 GiB
Duration : 1h 50mn
Overall bit rate : 1 763 Kbps
Writing application : VirtualDubMod 1.5.10.2 (build 2540/release)
Writing library : VirtualDubMod build 2540/release
Video
ID : 0
Format : MPEG-4 Visual
Format profile : Advanced [email protected]
Format settings, BVOP : 2
Format settings, QPel : No
Format settings, GMC : No warppoints
Format settings, Matrix : Default (MPEG)
Codec ID : XVID
Codec ID/Hint : XviD
Duration : 1h 50mn
Bit rate : 1 306 Kbps
Width : 720 pixels
Height : 304 pixels
Display aspect ratio : 2.35:1
Frame rate : 23.976 fps
Color space : YUV
Chroma subsampling : 4:2:0
Bit depth : 8 bits
Scan type : Progressive
Compression mode : Lossy
Bits/(Pixel*Frame) : 0.249
Stream size : 1.01 GiB (74%)
Writing library : XviD 1.2.1 (UTC 2008-12-04)
Audio
ID : 1
Format : AC-3
Format/Info : Audio Coding 3
Mode extension : CM (complete main)
Codec ID : 2000
Duration : 1h 50mn
Bit rate mode : Constant
Bit rate : 448 Kbps
Channel(s) : 6 channels
Channel positions : Front: L C R, Side: L R, LFE
Sampling rate : 48.0 KHz
Bit depth : 16 bits
Compression mode : Lossy
Stream size : 356 MiB (25%)
Alignment : Split accross interleaves
Interleave, duration : 42 ms (1.00 video frame)
Interleave, preload duration : 500 ms

Скриншоты

Создавать темы 04-Апр-2015 07:56

[Профиль]  [ЛС] 

Топик был перенесен из форума Фильмы за 2014 в форум Фильмы за 2014
mp1988

Создавать темы 04-Апр-2015 20:15

 

Kakcam

Стаж: 7 лет

Сообщений: 137

Симпатии: 7

чувак, ты его с мира еще не скачал что ли??? почему у меня трафик уходит? я качаю только твой фильм!!!

Создавать темы 07-Апр-2015 17:20

[Профиль]  [ЛС] 

Fury_ ®

Стаж: 2 года 9 месяцев

Сообщений: 22

Симпатии: 14

929520чувак, ты его с мира еще не скачал что ли??? почему у меня трафик уходит? я качаю только твой фильм!!!
устрани утечку чувак!

Создавать темы 07-Апр-2015 17:30

[Профиль]  [ЛС] 
Показать сообщения:    
Ответить на тему

Текущее время: 16-Дек 06:30

Часовой пояс: UTC + 5



Вы не можете начинать темы
Вы не можете отвечать на сообщения
Вы не можете редактировать свои сообщения
Вы не можете удалять свои сообщения
Вы не можете голосовать в опросах
Вы не можете прикреплять файлы к сообщениям
Вы не можете скачивать файлы