Заложница 3 / Taken 3 (Оливье Мегатон) [2014, Франция, боевик, триллер, BDRip 720p] Dub (Line) + Original + Sub (Rus, Eng)

Ответить на тему
 

lotto ®

Стаж: 7 лет 7 месяцев

Сообщений: 221

Симпатии: 409

Заложница 3 / Taken 3
«Это конец»
-- Страна: Франция
Жанр: боевик, триллер
Год выпуска: 2014
Продолжительность: 01:55:19
Перевод: Профессиональный (дублированный) Line
Cубтитры: русские, английские
Оригинальная аудиодорожка: английский--Режиссер: Оливье Мегатон
В ролях: Лиам Нисон, Мэгги Грэйс, Форест Уитакер, Сэм Спруэлл, Фамке Янссен, Дюгрей Скотт, Дон Харви, Дилан Бруно, Лиленд Орсер, Дэвид Уоршофски--Описание: Жизнь бывшего правительственного агента Брайана Миллса рушится, когда его обвиняют в убийстве, которого он не совершал. Преследуемый опытным инспектором полиции, Миллс пытается отследить настоящего убийцу…--Доп. информация: EXTENDED - расширенная версия, длиннее театральной ~ на 5 минут. Отсутствует дубляж в сценах, вошедших в расширенную версию, присутствуют русские субтитры на расширенные сцены.-- --Качество видео: BDRip
Формат видео: MKV
Видео: H.264, 1280x536, 2960 kbps, 23.976 fps
Аудио: AC3, 48 KHz, 6 ch, 448 kbps (русский, дублированный)
Аудио 2: AC3, 48 KHz, 6 ch, 448 kbps (английский)
Формат субтитров: softsub (SRT)

MediaInfo

General
Unique ID : 186635593128011313505701790651176331792 (0x8C68B52F10120A6F89278DE996F22A10)
Complete name : \Taken 3.2014.Extended.BDRip.720p.mkv
Format : Matroska
Format version : Version 2
File size : 3.10 GiB
Duration : 1h 55mn
Overall bit rate : 3 847 Kbps
Movie name : Taken 3 (2014)
Encoded date : UTC 2015-04-04 05:53:03
Writing application : mkvmerge v7.6.0 ('Garden of Dreams') 32bit built on Feb 11 2015 00:18:47
Writing library : libebml v1.3.1 + libmatroska v1.4.2
Attachements : cover.jpg
ARTIST : Лиам Нисон, Мэгги Грэйс, Форест Уитакер, Сэм Спруэлл, Фамке Янссен, Дюгрей Скотт, Дон Харви, Дилан Бруно, Лиленд Орсер, Дэвид Уоршофски и другие
DIRECTOR : Оливье Мегатон
DATE_RELEASED : 2014
SUMMARY : for tas-ix.net
GENRE : боевик, триллер
SYNOPSIS : Жизнь бывшего правительственного агента Брайана Миллса рушится, когда его обвиняют в убийстве, которого он не совершал. Преследуемый опытным инспектором полиции, Миллс пытается отследить настоящего убийцу…
Video
ID : 1
Format : AVC
Format/Info : Advanced Video Codec
Format profile : [email protected]
Format settings, CABAC : Yes
Format settings, ReFrames : 12 frames
Codec ID : V_MPEG4/ISO/AVC
Duration : 1h 55mn
Bit rate : 2 960 Kbps
Width : 1 280 pixels
Height : 536 pixels
Display aspect ratio : 2.40:1
Frame rate mode : Constant
Frame rate : 23.976 fps
Color space : YUV
Chroma subsampling : 4:2:0
Bit depth : 8 bits
Scan type : Progressive
Bits/(Pixel*Frame) : 0.180
Stream size : 2.32 GiB (75%)
Writing library : x264 core 146 r2538 121396c
Encoding settings : cabac=1 / ref=12 / deblock=1:-3:-3 / analyse=0x3:0x133 / me=umh / subme=10 / psy=1 / psy_rd=1.00:0.00 / mixed_ref=1 / me_range=64 / chroma_me=1 / trellis=2 / 8x8dct=1 / cqm=0 / deadzone=21,11 / fast_pskip=1 / chroma_qp_offset=-2 / threads=12 / lookahead_threads=3 / sliced_threads=0 / nr=0 / decimate=1 / interlaced=0 / bluray_compat=0 / constrained_intra=0 / bframes=11 / b_pyramid=2 / b_adapt=2 / b_bias=0 / direct=3 / weightb=1 / open_gop=0 / weightp=2 / keyint=240 / keyint_min=23 / scenecut=40 / intra_refresh=0 / rc_lookahead=240 / rc=2pass / mbtree=1 / bitrate=2960 / ratetol=1.0 / qcomp=0.60 / qpmin=0 / qpmax=69 / qpstep=4 / cplxblur=20.0 / qblur=0.5 / vbv_maxrate=40000 / vbv_bufsize=30000 / nal_hrd=none / filler=0 / ip_ratio=1.40 / aq=1:1.00
Language : English
Default : Yes
Forced : No
Color primaries : BT.709
Transfer characteristics : BT.709
Matrix coefficients : BT.709
Color range : Full
Audio #1
ID : 2
Format : AC-3
Format/Info : Audio Coding 3
Mode extension : CM (complete main)
Format settings, Endianness : Big
Codec ID : A_AC3
Duration : 1h 55mn
Bit rate mode : Constant
Bit rate : 448 Kbps
Channel(s) : 6 channels
Channel positions : Front: L C R, Side: L R, LFE
Sampling rate : 48.0 KHz
Bit depth : 16 bits
Compression mode : Lossy
Stream size : 369 MiB (12%)
Title : AC3 / 5.1 / 448 kbps / Line, WetY
Language : Russian
Default : Yes
Forced : No
Audio #2
ID : 3
Format : AC-3
Format/Info : Audio Coding 3
Mode extension : CM (complete main)
Format settings, Endianness : Big
Codec ID : A_AC3
Duration : 1h 55mn
Bit rate mode : Constant
Bit rate : 448 Kbps
Channel(s) : 6 channels
Channel positions : Front: L C R, Side: L R, LFE
Sampling rate : 48.0 KHz
Bit depth : 16 bits
Compression mode : Lossy
Stream size : 369 MiB (12%)
Title : AC3 / 5.1 / 448 kbps / Original
Language : English
Default : No
Forced : No
Text #1
ID : 4
Format : UTF-8
Codec ID : S_TEXT/UTF8
Codec ID/Info : UTF-8 Plain Text
Title : Forced
Language : Russian
Default : Yes
Forced : No
Text #2
ID : 5
Format : UTF-8
Codec ID : S_TEXT/UTF8
Codec ID/Info : UTF-8 Plain Text
Title : Full
Language : English
Default : No
Forced : No
Text #3
ID : 6
Format : UTF-8
Codec ID : S_TEXT/UTF8
Codec ID/Info : UTF-8 Plain Text
Title : SDH
Language : English
Default : No
Forced : No
Menu
00:00:00.000 : en:00:00:00.000
00:04:18.091 : en:00:04:18.091
00:10:12.820 : en:00:10:12.820
00:13:20.466 : en:00:13:20.466
00:15:44.986 : en:00:15:44.986
00:18:25.354 : en:00:18:25.354
00:23:18.814 : en:00:23:18.814
00:25:49.256 : en:00:25:49.256
00:27:34.861 : en:00:27:34.861
00:30:21.403 : en:00:30:21.403
00:33:01.146 : en:00:33:01.146
00:36:00.283 : en:00:36:00.283
00:38:17.795 : en:00:38:17.795
00:43:08.419 : en:00:43:08.419
00:46:46.428 : en:00:46:46.428
00:50:21.143 : en:00:50:21.143
00:55:00.338 : en:00:55:00.338
00:59:07.293 : en:00:59:07.293
01:02:49.641 : en:01:02:49.641
01:05:56.953 : en:01:05:56.953
01:07:13.863 : en:01:07:13.863
01:09:59.028 : en:01:09:59.028
01:14:26.086 : en:01:14:26.086
01:18:10.185 : en:01:18:10.185
01:22:19.518 : en:01:22:19.518
01:25:26.162 : en:01:25:26.162
01:29:38.206 : en:01:29:38.206
01:33:24.473 : en:01:33:24.473
01:37:07.571 : en:01:37:07.571
01:40:37.656 : en:01:40:37.656
01:46:48.443 : en:01:46:48.443
01:49:42.993 : en:01:49:42.993

Скриншот c названием фильма

Скриншоты

Создавать темы 04-Апр-2015 11:08

[Профиль]  [ЛС] 

totsamiy

Стаж: 5 лет 2 месяца

Сообщений: 145

Симпатии: 22

релиз на DVD - 23 апреля 2015, «Двадцатый Век Фокс СНГ»
немного еще подожду.....

Создавать темы 06-Апр-2015 12:55

[Профиль]  [ЛС] 

Mansurbek84

Стаж: 6 лет 9 месяцев

Сообщений: 80

Симпатии: 8

Качество видео не порадовало. Местами не переведено озвучка. За фильм 6 из 10.

Создавать темы 21-Апр-2015 17:36

[Профиль]  [ЛС] 
Показать сообщения:    
Ответить на тему

Текущее время: 24-Авг 04:25

Часовой пояс: UTC + 5



Вы не можете начинать темы
Вы не можете отвечать на сообщения
Вы не можете редактировать свои сообщения
Вы не можете удалять свои сообщения
Вы не можете голосовать в опросах
Вы не можете прикреплять файлы к сообщениям
Вы не можете скачивать файлы