С меня хватит! / Falling Down (Джоэл Шумахер) [1992, США, Франция, Великобритания, Триллер, драма, криминал, HDRip] (MVO)

Ответить на тему
 

Decadence ®

Стаж: 5 лет

Сообщений: 65

Симпатии: 32

С меня хватит! / Falling Down
Страна: США, Франция, Великобритания
Жанр: Триллер, драма, криминал
Год выпуска: 1992
Продолжительность: 01:52:36
Перевод: Профессиональный (многоголосый закадровый)
Cубтитры: нет
Режиссер: Джоэл Шумахер
В ролях: Майкл Дуглас, Роберт Дювалл, Барбара Херши, Рэйчел Тикотин, Тьюзди Уэлд, Фредерик Форрест, Лоис Смит, Джои Хоуп Сингер, Эбби Роу Смит, Майкл Пол Чан
Описание: Неудачи преследуют Уильяма всю жизнь. Особенно этим жарким летом. На работе его отправили в бессрочный отпуск. Решением суда ему запрещено встречаться с дочкой. Обозлившись на весь мир, Уильям решается на месть. Круша все на своем пути, он пробивается сквозь раскаленный город на день рождения к своей дочке. Люди воспринимают его как маньяка, и только опытный детектив Прендергаст знает, в чем причина агрессии Уильяма…
Качество видео: HDRip
Формат видео: AVI
Видео: XviD, 688x288, 23.976 fps, 790 kbps
Аудио: MP3, 48.0 KHz, 2 channels, 128 kbps

MediaInfo

General
Complete name : Falling Down.avi
Format : AVI
Format/Info : Audio Video Interleave
File size : 747 MiB
Duration : 1h 52mn
Overall bit rate : 927 Kbps
Writing application : VirtualDubMod 1.5.10.2 (build 2540/release)
Writing library : VirtualDubMod build 2540/release
Video #0
ID : 0
Format : MPEG-4 Visual
Format profile : Advanced [email protected]
Format settings, BVOP : 1
Format settings, QPel : No
Format settings, GMC : No warppoints
Format settings, Matrix : Custom
Codec ID : XVID
Codec ID/Hint : XviD
Duration : 1h 52mn
Bit rate : 790 Kbps
Width : 688 pixels
Height : 288 pixels
Display aspect ratio : 2.40:1
Frame rate : 23.976 fps
Color space : YUV
Chroma subsampling : 4:2:0
Bit depth : 8 bits
Scan type : Progressive
Compression mode : Lossy
Bits/(Pixel*Frame) : 0.166
Stream size : 636 MiB (85%)
Writing library : XviD 1.2.1 (UTC 2008-12-04)
Audio #1
ID : 1
Format : MPEG Audio
Format version : Version 1
Format profile : Layer 3
Codec ID : 55
Codec ID/Hint : MP3
Duration : 1h 52mn
Bit rate mode : Constant
Bit rate : 128 Kbps
Channel(s) : 2 channels
Sampling rate : 48.0 KHz
Compression mode : Lossy
Stream size : 103 MiB (14%)
Alignment : Aligned on interleaves
Interleave, duration : 42 ms (1.00 video frame)
Interleave, preload duration : 504 ms
Writing library : LAME3.97
Encoding settings : -m s -V 4 -q 2 -lowpass 17 -b 128

Скриншот c названием фильма

Скриншоты



Создавать темы 04-Апр-2015 12:16

[Профиль]  [ЛС] 

Aziizik

Стаж: 4 года 2 месяца

Сообщений: 23

Симпатии: 1

Раздайте пожалуйста

Создавать темы 05-Июн-2016 21:56

[Профиль]  [ЛС] 
Показать сообщения:    
Ответить на тему

Текущее время: 23-Сен 03:31

Часовой пояс: UTC + 5



Вы не можете начинать темы
Вы не можете отвечать на сообщения
Вы не можете редактировать свои сообщения
Вы не можете удалять свои сообщения
Вы не можете голосовать в опросах
Вы не можете прикреплять файлы к сообщениям
Вы не можете скачивать файлы