Клиент / The Client (Джоэл Шумахер) [1994, США, Триллер, драма, криминал, детектив, HDTVRip] (DVO : НТВ+)

Ответить на тему
 

Decadence ®

Стаж: 5 лет

Сообщений: 65

Симпатии: 32

Клиент / The Client
Страна: США
Жанр: Триллер, драма, криминал, детектив
Год выпуска: 1994
Продолжительность: 01:55:44
Перевод: Профессиональный (двухголосый закадровый) НТВ+
Cубтитры: нет
Режиссер: Джоэл Шумахер
В ролях: Сьюзен Сарандон, Томми Ли Джонс, Брэд Ренфро, Мэри-Луиз Паркер, Энтони ЛаПалья, Дж.Т. Уолш, Уилл Пэттон, Энтони Эдвардс, Уильям Х. Мэйси, Брэдли Уитфорд
Описание: 11-летний Марк невольно становится свидетелем самоубийства адвоката, работающего на мафию. Преступники готовы избавиться от него любым способом. А представители закона озабочены только его показаниями и не гарантируют Марку и его семье полноценной защиты.
Он самостоятельно решил обратиться за помощью к адвокату Рэджи Лав, чтобы сохранить свою жизнь и добиться справедливости.
Качество видео: HDTVRip
Формат видео: AVI
Видео: XviD, 656x272, 25.000 fps, 762 kbps
Аудио: MP3, 48.0 KHz, 2 channels, 128 kbps

MediaInfo

General
Complete name : The Client.avi
Format : AVI
Format/Info : Audio Video Interleave
File size : 745 MiB
Duration : 1h 55mn
Overall bit rate : 900 Kbps
Writing application : VirtualDubMod 1.5.10.2 (build 2540/release)
Writing library : VirtualDubMod build 2540/release
Video #0
ID : 0
Format : MPEG-4 Visual
Format profile : Advanced [email protected]
Format settings, BVOP : 1
Format settings, QPel : No
Format settings, GMC : No warppoints
Format settings, Matrix : Custom
Codec ID : XVID
Codec ID/Hint : XviD
Duration : 1h 55mn
Bit rate : 762 Kbps
Width : 656 pixels
Height : 272 pixels
Display aspect ratio : 2.40:1
Frame rate : 25.000 fps
Color space : YUV
Chroma subsampling : 4:2:0
Bit depth : 8 bits
Scan type : Progressive
Compression mode : Lossy
Bits/(Pixel*Frame) : 0.171
Stream size : 631 MiB (85%)
Writing library : XviD 1.2.1 (UTC 2008-12-04)
Audio #1
ID : 1
Format : MPEG Audio
Format version : Version 1
Format profile : Layer 3
Codec ID : 55
Codec ID/Hint : MP3
Duration : 1h 55mn
Bit rate mode : Constant
Bit rate : 128 Kbps
Channel(s) : 2 channels
Sampling rate : 48.0 KHz
Compression mode : Lossy
Stream size : 106 MiB (14%)
Alignment : Aligned on interleaves
Interleave, duration : 40 ms (1.00 video frame)
Interleave, preload duration : 504 ms
Writing library : LAME3.98r
Encoding settings : -m s -V 4 -q 2 -lowpass 17 -b 128

Скриншот c названием фильма

Скриншоты



Создавать темы 04-Апр-2015 12:40

[Профиль]  [ЛС] 
Показать сообщения:    
Ответить на тему

Текущее время: 20-Окт 19:22

Часовой пояс: UTC + 5



Вы не можете начинать темы
Вы не можете отвечать на сообщения
Вы не можете редактировать свои сообщения
Вы не можете удалять свои сообщения
Вы не можете голосовать в опросах
Вы не можете прикреплять файлы к сообщениям
Вы не можете скачивать файлы