Дорога на Арлингтон / Arlington Road (Марк Пеллингтон) [1998, США, Триллер, драма, HDRip] (Dub)

Ответить на тему
 

Decadence ®

Стаж: 5 лет

Сообщений: 65

Симпатии: 32

Дорога на Арлингтон / Arlington Road
Страна: США
Жанр: Триллер, драма
Год выпуска: 1998
Продолжительность: 01:57:44
Перевод 1: Профессиональный (дублированный)
Перевод 2: Профессиональный (многоголосый)
Cубтитры: нет
Режиссер: Марк Пеллингтон
В ролях: Джефф Бриджес, Тим Роббинс, Джоан Кьюсак, Хоуп Дэвис, Роберт Госсетт, Мейсон Гэмбл, Спенсер Трит Кларк, Стенли Андерсон, Вивиан Вайвз, Ли Стрингер
Описание: Интеллигентный профессор Майкл Фарадей, в одиночку воспитывающий своего сына после трагической гибели жены во время рейда ФБР, и не представляет, какой крутой поворот вскоре совершит его судьба. Знакомство с милой соседской семьей помогает Майклу оправиться от потрясения и вернуться к нормальной жизни.
Однако чем дольше Майкл общается с новыми друзьями, тем больше необъяснимых сомнений и тревог появляется в его душе. Поймав несколько раз соседа на мелкой лжи, Майкл решает выяснить все об этом человеке. И его открытия оказываются гораздо страшнее, чем он мог себе вообразить.
Качество видео: HDRip
Формат видео: AVI
Видео: XviD, 656x272, 25.000 fps, 749 kbps
Аудио 1: MP3, 48.0 KHz, 2 channels, 128 kbps (DUB)
Аудио 2: MP3, 48.0 KHz, 2 channels, 128 kbps (MVO)

MediaInfo

General
Complete name : Arlington Road.avi
Format : AVI
Format/Info : Audio Video Interleave
File size : 858 MiB
Duration : 1h 57mn
Overall bit rate : 1 019 Kbps
Writing application : VirtualDubMod 1.5.10.2 (build 2540/release)
Video #0
ID : 0
Format : MPEG-4 Visual
Format profile : Advanced [email protected]
Format settings, BVOP : 3
Format settings, QPel : No
Format settings, GMC : No warppoints
Format settings, Matrix : Custom
Codec ID : XVID
Codec ID/Hint : XviD
Duration : 1h 57mn
Bit rate : 749 Kbps
Width : 656 pixels
Height : 272 pixels
Display aspect ratio : 2.40:1
Frame rate : 23.976 fps
Color space : YUV
Chroma subsampling : 4:2:0
Bit depth : 8 bits
Scan type : Progressive
Compression mode : Lossy
Bits/(Pixel*Frame) : 0.175
Stream size : 631 MiB (74%)
Writing library : XviD 1.2.1 (UTC 2008-12-04)
Audio #1
ID : 1
Format : MPEG Audio
Format version : Version 1
Format profile : Layer 3
Codec ID : 55
Codec ID/Hint : MP3
Duration : 1h 57mn
Bit rate mode : Constant
Bit rate : 128 Kbps
Channel(s) : 2 channels
Sampling rate : 48.0 KHz
Compression mode : Lossy
Stream size : 108 MiB (13%)
Alignment : Aligned on interleaves
Interleave, duration : 42 ms (1.00 video frame)
Interleave, preload duration : 504 ms
Writing library : LAME3.98r
Encoding settings : -m s -V 4 -q 2 -lowpass 17 -b 128
Audio #2
ID : 2
Format : MPEG Audio
Format version : Version 1
Format profile : Layer 3
Codec ID : 55
Codec ID/Hint : MP3
Duration : 1h 57mn
Bit rate mode : Constant
Bit rate : 128 Kbps
Channel(s) : 2 channels
Sampling rate : 48.0 KHz
Compression mode : Lossy
Stream size : 108 MiB (13%)
Alignment : Aligned on interleaves
Interleave, duration : 42 ms (1.00 video frame)
Interleave, preload duration : 504 ms
Writing library : LAME3.98r
Encoding settings : -m s -V 4 -q 2 -lowpass 17 -b 128

Скриншот c названием фильма

Скриншоты



Создавать темы 04-Апр-2015 13:16

[Профиль]  [ЛС] 
Показать сообщения:    
Ответить на тему

Текущее время: 27-Сен 02:03

Часовой пояс: UTC + 5



Вы не можете начинать темы
Вы не можете отвечать на сообщения
Вы не можете редактировать свои сообщения
Вы не можете удалять свои сообщения
Вы не можете голосовать в опросах
Вы не можете прикреплять файлы к сообщениям
Вы не можете скачивать файлы