Унижение / The Humbling (Барри Левинсон) [2014, США, драма, комедия, HDRip] MVO [Лицензия]

Ответить на тему
 

Leroy ®

Стаж: 2 года 5 месяцев

Сообщений: 4

Симпатии: 1

Унижение / The Humbling
Страна: США
Жанр: драма, комедия
Год выпуска: 2014
Продолжительность: 01:46:56
Перевод: Профессиональный (многоголосый закадровый) [Лицензия]
Cубтитры: нет
Режиссер: Барри Левинсон
В ролях: Аль Пачино, Грета Гервиг, Дайэнн Уист, Кира Седжвик, Нина Арианда, Дилан Бейкер, Чарльз Гродин, Дэн Хедайя, Мария Ди Анджелис, Виктор Круз
Описание: Успешный и знаменитый, одарённый, но уже «навсегда уставший» и утративший вдохновение актер в предвкушении финала карьеры пытается покончить с собой. Любовь и отношения с девушкой значительно моложе его, кардинально меняют вектор сведения счетов.
Качество видео: HDRip
Формат видео: AVI
Видео: XviD ,1846 Кбит/с, 720x304,23.976 fps
Аудио: AC3, 6 ch, 448 Кбит/с, 48.0 KHz Russian
Аудио 2: AC3, 6 ch, 448 Кбит/с, 48.0 KHz English

MediaInfo

General
Format : AVI
Format/Info : Audio Video Interleave
Format profile : OpenDML
File size : 2.05 GiB
Duration : 1h 46mn
Overall bit rate : 2 749 Kbps
Writing application : VirtualDubMod 1.5.10.2 (build 2540/release)
Writing library : VirtualDubMod build 2540/release
Video
ID : 0
Format : MPEG-4 Visual
Format profile : Advanced [email protected]
Format settings, BVOP : 2
Format settings, QPel : No
Format settings, GMC : No warppoints
Format settings, Matrix : Default (MPEG)
Codec ID : XVID
Codec ID/Hint : XviD
Duration : 1h 46mn
Bit rate : 1 835 Kbps
Width : 720 pixels
Height : 304 pixels
Display aspect ratio : 2.35:1
Frame rate : 23.976 fps
Color space : YUV
Chroma subsampling : 4:2:0
Bit depth : 8 bits
Scan type : Progressive
Compression mode : Lossy
Bits/(Pixel*Frame) : 0.350
Stream size : 1.37 GiB (67%)
Writing library : XviD 1.2.1 (UTC 2008-12-04)
Audio #1
ID : 1
Format : AC-3
Format/Info : Audio Coding 3
Mode extension : CM (complete main)
Format settings, Endianness : Big
Codec ID : 2000
Duration : 1h 46mn
Bit rate mode : Constant
Bit rate : 448 Kbps
Channel(s) : 6 channels
Channel positions : Front: L C R, Side: L R, LFE
Sampling rate : 48.0 KHz
Bit depth : 16 bits
Compression mode : Lossy
Stream size : 343 MiB (16%)
Alignment : Split accross interleaves
Interleave, duration : 42 ms (1.00 video frame)
Interleave, preload duration : 500 ms
Audio #2
ID : 2
Format : AC-3
Format/Info : Audio Coding 3
Mode extension : CM (complete main)
Format settings, Endianness : Big
Codec ID : 2000
Duration : 1h 46mn
Bit rate mode : Constant
Bit rate : 448 Kbps
Channel(s) : 6 channels
Channel positions : Front: L C R, Side: L R, LFE
Sampling rate : 48.0 KHz
Bit depth : 16 bits
Compression mode : Lossy
Stream size : 343 MiB (16%)
Alignment : Split accross interleaves
Interleave, duration : 42 ms (1.00 video frame)
Interleave, preload duration : 500 ms

Скриншоты



Создавать темы 04-Апр-2015 13:39

[Профиль]  [ЛС] 

taziev

Стаж: 4 года 10 месяцев

Сообщений: 41

Симпатии: 1

аль пачино совсем уже постарел..

Создавать темы 07-Апр-2015 13:19

[Профиль]  [ЛС] 
Показать сообщения:    
Ответить на тему

Текущее время: 20-Авг 13:09

Часовой пояс: UTC + 5



Вы не можете начинать темы
Вы не можете отвечать на сообщения
Вы не можете редактировать свои сообщения
Вы не можете удалять свои сообщения
Вы не можете голосовать в опросах
Вы не можете прикреплять файлы к сообщениям
Вы не можете скачивать файлы