Последний из могикан / The Last of the Mohicans (Майкл Манн / Michael Mann) [1992, США, боевик, драма, мелодрама, приключения, военный, ис, BDRip] [Director's Definitive Cut] (MVO : СТС) (Sub Rus + Original Eng)

Ответить на тему
 

D0wnl0ader ®

Стаж: 2 года 4 месяца

Сообщений: 14

Симпатии: 12

Последний из могикан / The Last of the Mohicans / Director's Definitive Cut
Страна: США
Жанр: боевик, драма, мелодрама, приключения, военный
Год выпуска: 1992
Продолжительность: 01:54:33
Перевод: Профессиональный (многоголосый закадровый) Доп. инфо о переводе СТС
Cубтитры: русские
Оригинальная аудиодорожка: английский
Режиссер: Майкл Манн / Michael Mann
В ролях: Дэниэл Дэй-Льюис, Мэделин Стоу, Рассел Минс, Эрик Швейг, Джоди Мэй, Стивен Вэддингтон, Уэс Стьюди, Морис Роевз, Патрис Шеро, Эдвард Блэтчфорд
Описание: 1757 год. Англо-французская война за американские колонии в самом разгаре. Дочери полковника Манро пытаются пробраться в осажденный французами английский форт. Им на помощь приходит молодой белый охотник Соколиный Глаз. Между Соколиным Глазом, выросшим среди индейцев племени могикан, и старшей из дочерей, утонченной Корой, вспыхивает взаимное чувство.
Но Кора и ее сестра попадают в плен к союзникам французов — гуронам, и от мучительной смерти их могут спасти только Соколиный Глаз и его верные друзья — индейцы…
Доп. информация: IMDb: 7.80 (99 767 votes)
КиноПоиск.Ru 7.647 (6918 votes)
Качество видео: BDRip
Формат видео: AVI
Видео: 720x304
Аудио: Dolby AC3 48000Hz 6ch 384kbps [Audio 1]
Аудио 2: Dolby AC3 48000Hz stereo 192kbps [Audio 2]
Аудио 3: Dolby AC3 48000Hz 6ch 384kbps [Audio 3]
Формат субтитров: softsub (SRT)

MediaInfo

General
Complete name : Posledniy.Iz.Mogikan.DC.1992.TRIPLE.BDRip.XviD.AC3.-HQ-ViDEO.avi
Format : AVI
Format/Info : Audio Video Interleave
Format profile : OpenDML
File size : 2.18 GiB
Duration : 1h 54mn
Overall bit rate : 2 728 Kbps
Movie name : The Last of the Mohicans (1992)
Director : Shevon (Blu-Ray Disk)
Writing application : VirtualDubMod 1.5.10.2 (build 2540/release)
Copyright : HQ-ViDEO (www.hq-video.ru)
Comment : Director's Definitive Cut
Video
ID : 0
Format : MPEG-4 Visual
Format profile : Advanced [email protected]
Format settings, BVOP : Yes
Format settings, QPel : No
Format settings, GMC : No warppoints
Format settings, Matrix : Custom
Codec ID : XVID
Codec ID/Hint : XviD
Duration : 1h 54mn
Bit rate : 1 744 Kbps
Width : 720 pixels
Height : 304 pixels
Display aspect ratio : 2.35:1
Frame rate : 23.976 fps
Resolution : 8 bits
Colorimetry : 4:2:0
Scan type : Progressive
Bits/(Pixel*Frame) : 0.332
Stream size : 1.40 GiB (64%)
Writing library : XviD 1.2.1 (UTC 2008-12-04)
Audio #1
ID : 1
Format : AC-3
Format/Info : Audio Coding 3
Codec ID : 2000
Duration : 1h 54mn
Bit rate mode : Constant
Bit rate : 384 Kbps
Channel(s) : 6 channels
Channel positions : Front: L C R, Surround: L R, LFE
Sampling rate : 48.0 KHz
Stream size : 315 MiB (14%)
Alignment : Split accross interleaves
Interleave, duration : 42 ms (1.00 video frame)
Interleave, preload duration : 500 ms
Audio #2
ID : 2
Format : AC-3
Format/Info : Audio Coding 3
Codec ID : 2000
Duration : 1h 54mn
Bit rate mode : Constant
Bit rate : 192 Kbps
Channel(s) : 2 channels
Channel positions : L R
Sampling rate : 48.0 KHz
Stream size : 157 MiB (7%)
Alignment : Split accross interleaves
Interleave, duration : 42 ms (1.00 video frame)
Interleave, preload duration : 500 ms
Audio #3
ID : 3
Format : AC-3
Format/Info : Audio Coding 3
Codec ID : 2000
Duration : 1h 54mn
Bit rate mode : Constant
Bit rate : 384 Kbps
Channel(s) : 6 channels
Channel positions : Front: L C R, Surround: L R, LFE
Sampling rate : 48.0 KHz
Stream size : 315 MiB (14%)
Alignment : Split accross interleaves
Interleave, duration : 42 ms (1.00 video frame)
Interleave, preload duration : 500 ms

Скриншот c названием фильма

Скриншоты





Создавать темы 04-Апр-2015 14:30

[Профиль]  [ЛС] 

D0wnl0ader ®

Стаж: 2 года 4 месяца

Сообщений: 14

Симпатии: 12

раздача идет, люди!

Создавать темы 04-Апр-2015 18:00

[Профиль]  [ЛС] 
Показать сообщения:    
Ответить на тему

Текущее время: 20-Авг 03:37

Часовой пояс: UTC + 5



Вы не можете начинать темы
Вы не можете отвечать на сообщения
Вы не можете редактировать свои сообщения
Вы не можете удалять свои сообщения
Вы не можете голосовать в опросах
Вы не можете прикреплять файлы к сообщениям
Вы не можете скачивать файлы