Крутой / Tevar (Амит Шарма) [2015, Индия, боевик, триллер, драма, TVRip] (MVO) (Sub Rus)

Ответить на тему
 

Davron1402 ®

Стаж: 3 года 10 месяцев

Сообщений: 136

Симпатии: 122

Крутой / Tevar- Страна: Индия
Жанр: боевик, триллер, драма
Год выпуска: 2015
Продолжительность: 02:29:57
Перевод: Профессиональный (многоголосый закадровый)
Cубтитры: русские(только на песни)
Режиссер: Амит Шарма
В ролях: Арджун Капур, Сонакши Синха, Манодж Баджпаи, Субрата Дутта, Гунджан Мальхотра, Раджеш Шарма, Субрат Дутта, Радж Баббар, Дипти Навал, Шрути Хасан
Описание: Он - лучший игрок Агры в каббадди, она - режиссер драмкружка в Мадхуре. Он - задира и забияка, она - скромна, хорошо танцует и поет. Они совершенно разные, живут в разных городах. Но объединяет их одно - Гаджендра Сингх - политический лидер, который положил глаз на Радхику, и хочет на ней жениться. Волей случая все трое оказываются в одном месте. И Пинту, как истинный джентльмен, решает постоять за честь девушки... Ох, и отхватит кто-то по полной... Ведь у Гаджендры маленькая армия, а Пинту всего один... но он КРУТОЙ!-Качество видео: TVRip
Формат видео: mp4 (MPEG-4)
Видео: AVC, 854 x 362 (2.35:1), 23.976 fps, 660 Kbps
Аудио:AAC, 44.1 KHz, 2 channels, 152 Kbps

MediaInfo

Расположение: D:\KINO\Indiskie Kino\Tevar_2015.mp4
Имя файла: Tevar_2015.mp4
Формат файла: .mp4 (MPEG-4)
Размер файла: 875.75 MB
Длительность: 2h 29mn
Навигация по главам: Нет
Bitrate (все потоки): 816 Kbps
Тип битрейта (все потоки): Variable
...при помощи: Lavf55.48.100
Название: Tevar_2015
Тип потока: Видео
Длительность: 02:29:57
Кодек: AVC
Кодек/Профиль: [email protected]
Кодек/ID: avc1
Кодек/CABAC: No
Кодек/ReFrames: 3 frames
Размеры изображения: 854 x 362 (2.35:1)
Частота кадров: 23.976 fps
Размер потока: 708 MiB (81%)
Битрейт: 660 Kbps
Библиотека кодирования: x264 core 142
Цветовое пространство: YUV
Тип развёртки: Progressive
Глубина: 8 bits
Тип потока: Звук #1
Длительность: 02:29:57.816
Кодек: AAC
Кодек/Профиль: LC
Кодек/ID: 40
Частота дискретизации: 44.1 KHz
Каналов: 2 channels
Битрейт: 152 Kbps
Битрейт/тип: Variable
Размер потока: 163 MiB (19%)
Метод сжатия: Lossy

Скриншоты





Последний раз редактировалось: Davron1402 (2015-04-05 01:18), всего редактировалось 1 раз

Создавать темы 04-Апр-2015 16:49

[Профиль]  [ЛС] 
Показать сообщения:    
Ответить на тему

Текущее время: 20-Ноя 01:00

Часовой пояс: UTC + 5



Вы не можете начинать темы
Вы не можете отвечать на сообщения
Вы не можете редактировать свои сообщения
Вы не можете удалять свои сообщения
Вы не можете голосовать в опросах
Вы не можете прикреплять файлы к сообщениям
Вы не можете скачивать файлы