5x2 / Пятью два / Cinq Fois Deux (Франсуа Озон / Francois Ozon) [2004, Франция, драма, мелодрама, DVDRip] (MVO) (Sub Rus + Original Fre)

Ответить на тему
 

kat222000 ®

Стаж: 6 лет 8 месяцев

Сообщений: 608

Симпатии: 1055

-5x2 / Пятью два / Cinq Fois Deux-Страна: Франция
Жанр: драма, мелодрама
Год выпуска: 2004
Продолжительность: 01:26:50-Перевод: Профессиональный (многоголосый закадровый)
Cубтитры: русские
Оригинальная аудиодорожка: французский-Режиссер: Франсуа Озон / Francois Ozon-В ролях: Валерия Бруни-Тедески, Стефан Фрейсс, Франсуаза Фабиан, Майкл Лонсдэйл, Джералдин Пэйлхэс и др.-Описание: Загадка названия "5х2" истолковывается просто. Перед нами - пять сцен с участием двоих. Причем, как это было у Маркеса в "Хронике объявленной смерти" или у Гаспара Ноэ в "Необратимости" - фильм раскручивает сюжет вспять, начиная с конца. В финале картины мы видим счастливых влюбленных, только что познакомившихся: они еще не знают, что вскоре разведутся. Зато знают зрители, ибо "5х2" начинается со сцены развода. Впрочем, порядок событий не так уж важен. Закручивая свою ленту Мебиуса, Озон определенно что-то имел в виду. Что, интересно? Что в каждой любовной связи уже виден призрак увядания и смерти? Что мы не знаем, куда идем? Что настоящая любовь в этом мире - невозможна? Наверно, и то, и другое, и третье. И, видимо, еще что-то, неуловимое, что позволило ему снять эту щемящую, тонкую, по-французски вдумчивую, искреннюю и безнадежно прекрасную картину.- -Возраст: зрителям, достигшим 16 лет-Рейтинг MPAA: лицам до 17 лет обязательно присутствие взрослого-Качество видео: DVDRip
Формат видео: AVI
Видео кодек: DivX 5
Аудио кодек: AC3
Видео: DivX 5, 704x376, 25fps, 1 473kbps
Аудио 1: Dolby AC3, 48000Hz, 6ch, 384kbps (русский)
Аудио 2: Dolby AC3, 48000Hz, 6ch, 384kbps (французский)
Формат субтитров: softsub (SRT)- Венецианский кинофестиваль, 2004 год-* Кубок Пазинетти за лучшую женскую роль (Валерия Бруни-Тедески)-

...из книги «3500 кинорецензий»

36-летний французский режиссёр Франсуа Озон сам опрометчиво подставился, сообщив в интервью, что в этом фильме не только ориентировался на замечательную ленту «Сцены из супружеской жизни» Ингмара Бергмана, но даже заставил главных исполнителей читать на кинопробах отрывки из диалогов бергмановских персонажей Марианне и Юхана. Озон назвал своих героев-супругов именами Марион и Жиль — получилось, что женщин зовут почти одинаково, а вот мужчины сильно отличаются, в том числе — и по поведению в отношении партнёрш.
Момент мучительного расставания давно привыкших друг к другу тел (мужа и жену только что развели в суде, но плоть ещё требует интимной близости) вместо впечатления острого психологического свойства, что потрясающе удаётся передать Бергману и его актёрам, рождает более тягостное и какое-то извращённое ощущение. Эпизод прощального соития в номере отеля, снятом бывшими супругами, превращается в акт грубого насилия со стороны мужчины. Неудивительно, что из-за избранного им способа вымещения своей сексуальной неудовлетворённости начинаешь подозревать в Жиле латентного гомосексуалиста, а потом находишь подтверждение этому и в истории его брата, как раз не скрывающего влечения к парням, и в рассказе Марион о том, что у неё и мужа был опыт группового секса на вечеринке.
Вот и Стефан Фрейсс не отрицал, что держал в уме возможную предрасположенность собственного персонажа к иного рода сексуальным контактам. Да и гей-открытость самого Франсуа Озона не позволяет усомниться, что он лучше знает характер взаимоотношений мужских пар. А также хорошо чувствует женские натуры (не случайно, что все актрисы снимаются у него с большим удовольствием и вообще с пользой для своей карьеры — это касается и Валерии Бруни-Тедески, попавшей в номинацию Европейского киноприза за роль в «5х2»), но вряд ли способен понять супружескую жизнь, даже если рассказывает о ней в пяти новеллах задом наперёд (кстати, потом на DVD картина была выпущена и в другой версии — «2х5», где всё изложено уже в хронологическом порядке).
При просмотре этой работы Озона неизбежно вспоминаются вовсе не «Помни» и «Необратимость» — как примеры обратного развития экранных событий, а умный и трезвый по анализу французский фильм сорокалетней давности «Супружеская жизнь». Его постановщик Андре Кайат хорошо знал из своей предшествующей адвокатской практики, что все браки, включая «заключённые на небесах», неизбежно расторгаются лишь в зале суда. И сдвоенная оптика (одна и та же матримониальная история по-разному рассказана мужем и женой) давала возможность куда более внятно и убедительно осознать, чтó же так и не смогло сойтись в судьбах двоих людей, попытавшихся жить вместе.
А автор ленты «5х2» (можно было бы назвать «5+2», поскольку это его седьмая по счёту полнометражная работа и пятая из числа малонаселённых), скорее всего, оставляет нас в недоумении, точнее — позволяет думать что угодно, демонстрируя собственное лукавство в намеренно расплывчатом финале, сознательно клишированном с кинематографической точки зрения. Как кто-то верно пошутил, Франсуа Озон попытался начать повествование в стиле Ингмара Бергмана, а закончил вполне в духе Клода Лелуша. Кстати, это только убеждает, что бывший ниспровергатель буржуазной морали всё явственнее сам обуржуазивается, а от смелых эстетических поисков переходит к блёклому и унылому пересказу по тридцать пятому разу того, что было между мужчиной и женщиной тогда и несколько лет спустя.
-

MediaInfo

General
Format : AVI
Format/Info : Audio Video Interleave
File size : 1.37 GiB
Duration : 1h 26mn
Overall bit rate : 2 256 Kbps
Writing application : VirtualDubMod 1.5.10.2 (build 2540/release)
Writing library : VirtualDubMod build 2540/release
Video
ID : 0
Format : MPEG-4 Visual
Format settings, BVOP : Yes
Format settings, QPel : No
Format settings, GMC : No warppoints
Format settings, Matrix : Default (H.263)
Codec ID : DX50
Codec ID/Hint : DivX 5
Duration : 1h 26mn
Bit rate : 1 473 Kbps
Width : 704 pixels
Height : 376 pixels
Display aspect ratio : 1.85:1
Frame rate : 25.000 fps
Color space : YUV
Chroma subsampling : 4:2:0
Bit depth : 8 bits
Scan type : Progressive
Compression mode : Lossy
Bits/(Pixel*Frame) : 0.223
Stream size : 915 MiB (65%)
Writing library : DivX 6.8.3-6.8.4 (UTC 2008-06-07)
Audio #1
ID : 1
Format : AC-3
Format/Info : Audio Coding 3
Mode extension : CM (complete main)
Format settings, Endianness : Big
Codec ID : 2000
Duration : 1h 26mn
Bit rate mode : Constant
Bit rate : 384 Kbps
Channel(s) : 6 channels
Channel positions : Front: L C R, Side: L R, LFE
Sampling rate : 48.0 KHz
Bit depth : 16 bits
Compression mode : Lossy
Stream size : 238 MiB (17%)
Alignment : Split accross interleaves
Interleave, duration : 40 ms (1.00 video frame)
Interleave, preload duration : 500 ms
Audio #2
ID : 2
Format : AC-3
Format/Info : Audio Coding 3
Mode extension : CM (complete main)
Format settings, Endianness : Big
Codec ID : 2000
Duration : 1h 26mn
Bit rate mode : Constant
Bit rate : 384 Kbps
Channel(s) : 6 channels
Channel positions : Front: L C R, Side: L R, LFE
Sampling rate : 48.0 KHz
Bit depth : 16 bits
Compression mode : Lossy
Stream size : 238 MiB (17%)
Alignment : Split accross interleaves
Interleave, duration : 40 ms (1.00 video frame)
Interleave, preload duration : 500 ms
-

Скриншоты



- - -
-

Создавать темы 04-Апр-2015 20:25

[Профиль]  [ЛС] 

dilshod5254

Стаж: 6 лет 8 месяцев

Сообщений: 106

Симпатии: 14

а японцы тоже снимают арТ?

Создавать темы 07-Апр-2015 22:43

[Профиль]  [ЛС] 

FRIEND

Стаж: 6 лет 10 месяцев

Сообщений: 120

Симпатии: 7

929566а японцы тоже снимают арТ?
Конечно. А Вы не знали?

Создавать темы 08-Апр-2015 20:20

[Профиль]  [ЛС] 

dilshod5254

Стаж: 6 лет 8 месяцев

Сообщений: 106

Симпатии: 14

929730
929566а японцы тоже снимают арТ?
Конечно. А Вы не знали?
знал))) эта такой намек автору.

Создавать темы 09-Апр-2015 02:23

[Профиль]  [ЛС] 

FRIEND

Стаж: 6 лет 10 месяцев

Сообщений: 120

Симпатии: 7

Что удивило так это похожие диалоги Жилья с Марион, а в начале с Валери...
Этот мужчина не умеет любить по-моему, обе его женщины страдают....
Мне больше жалко Валери, ведь Марион успела изменить новоиспеченному мужу.
На счет фильма, очень понравилась то что все начинается с конца истории и продвигается назад.
Спасибо большое!!!!!!

Создавать темы 17-Апр-2015 20:14

[Профиль]  [ЛС] 
Показать сообщения:    
Ответить на тему

Текущее время: 11-Дек 09:07

Часовой пояс: UTC + 5



Вы не можете начинать темы
Вы не можете отвечать на сообщения
Вы не можете редактировать свои сообщения
Вы не можете удалять свои сообщения
Вы не можете голосовать в опросах
Вы не можете прикреплять файлы к сообщениям
Вы не можете скачивать файлы