Большой адронный Коллайдер(БАК)-Машина большого взрыва / The Big Bang Machine (Gideon Bradshaw) [2008, Великобритания, Документальный фильм, Астрофизика, TVRip] (Sub Rus + Original Eng)

Ответить на тему
 

D0wnl0ader ®

Стаж: 2 года 4 месяца

Сообщений: 14

Симпатии: 12

Большой адронный Коллайдер(БАК)-Машина большого взрыва / The Big Bang Machine
Страна: Великобритания
Жанр: Документальный фильм, Астрофизика
Год выпуска: 2008
Продолжительность: 00:58:51
Перевод: Субтитры
Cубтитры: русские
Оригинальная аудиодорожка: английский
Режиссер: Gideon Bradshaw
В ролях: Брайен Кокс
Описание: Профессор Брайен Кокс посещает Женеву, чтобы осмотреть Большой Адронный Коллайдер Центра Ядерных Исследований где пройдёт эксперимент по созданию черной дыры. Он также узнает какие условия требуются для создания природы Большого взрыва.
Professor Brian Cox visits Geneva to take a look around Cern's Large Hadron Collider before this vast, 27km long machine is sealed off and a simulation experiment begins to try and create the conditions that existed just a billionth of a second after the Big Bang. Cox joins the scientists who hope that the LHC will change our understanding of the early universe and solve some of its mysteries.
Доп. информация: http://en.wikipedia.org/wiki/Large_Hadron_Collider
Качество видео: TVRip
Формат видео: AVI
Видео: Xvid 672x384 25.00fps 1632kbps
Аудио: MPEG Audio Layer 3 48000Hz stereo 127kbps [Eng]
Формат субтитров: softsub (SRT)
Доп. информация о субтитрах: [RUS]

MediaInfo

Complete name : BBC.The.Big.Bang.Machine.2008.WS.PDTV.XviD.MP3.MVGroup.org.avi
Format : AVI
Format/Info : Audio Video Interleave
File size : 747 MiB
Duration : 58mn 51s
Overall bit rate : 1 773 Kbps
Video
ID : 0
Format : MPEG-4 Visual
Format profile : Advanced [email protected]
Format settings, BVOP : Yes
Format settings, QPel : No
Format settings, GMC : No warppoints
Format settings, Matrix : Default (H.263)
Codec ID : XVID
Codec ID/Hint : XviD
Duration : 58mn 51s
Bit rate : 1 632 Kbps
Width : 672 pixels
Height : 384 pixels
Display aspect ratio : 16:9
Frame rate : 25.000 fps
Resolution : 8 bits
Colorimetry : 4:2:0
Scan type : Progressive
Bits/(Pixel*Frame) : 0.253
Stream size : 687 MiB (92%)
Writing library : XviD 1.2.0.dev47 (UTC 2006-11-01)
Audio
ID : 1
Format : MPEG Audio
Format version : Version 1
Format profile : Layer 3
Format_Settings_Mode : Joint stereo
Codec ID : 55
Codec ID/Hint : MP3
Duration : 58mn 51s
Bit rate mode : Variable
Bit rate : 128 Kbps
Nominal bit rate : 144 Kbps
Channel(s) : 2 channels
Sampling rate : 48.0 KHz
Stream size : 53.9 MiB (7%)
Alignment : Aligned on interleaves
Interleave, duration : 24 ms (0.60 video frame)
Interleave, preload duration : 591 ms
Writing library : LAME3.97
Encoding settings : -m j -V 4 -q 2 -lowpass 17.5 --abr 144

Скриншот c названием фильма

Скриншоты





Создавать темы 04-Апр-2015 20:46

[Профиль]  [ЛС] 
Показать сообщения:    
Ответить на тему

Текущее время: 21-Авг 13:22

Часовой пояс: UTC + 5



Вы не можете начинать темы
Вы не можете отвечать на сообщения
Вы не можете редактировать свои сообщения
Вы не можете удалять свои сообщения
Вы не можете голосовать в опросах
Вы не можете прикреплять файлы к сообщениям
Вы не можете скачивать файлы