Попутчик / The Hitcher (Роберт Хармон) [1986, США, Боевик, триллер, DVDRip] (MVO)

Ответить на тему
 

Decadence ®

Стаж: 5 лет

Сообщений: 65

Симпатии: 32

Попутчик / The Hitcher
Страна: США
Жанр: Боевик, триллер
Год выпуска: 1986
Продолжительность: 01:33:27
Перевод: Профессиональный (многоголосый закадровый)
Cубтитры: нет
Режиссер: Роберт Хармон
В ролях: Рутгер Хауэр, Си Томас Хауэлл, Дженнифер Джейсон Ли, Джеффри ДеМанн, Джон М. Джексон, Билли Грин Буш, Джек Тибо, Армин Шимерман, Джин Дэвис, Джон Ван Несс
Описание: Зловещий попутчик, сеющий смерть на своем пути, голосует на дороге и останавливает молодого парня. Тот соглашается его подвести в ненастье, не думая, какой опасности он себя подвергает.
Качество видео: DVDRip
Формат видео: AVI
Видео: XviD, 688x288, 25.000 fps, 975 kbps
Аудио: MP3, 48.0 KHz, 2 channels, 128 kbps

MediaInfo

General
Complete name : The Hitcher.avi
Format : AVI
Format/Info : Audio Video Interleave
File size : 744 MiB
Duration : 1h 33mn
Overall bit rate : 1 113 Kbps
Writing application : VirtualDubMod 1.5.10.3 | www.virtualdub-fr.org || (build 2550/release) VirtualDubMod build 2550/release
Video #0
ID : 0
Format : MPEG-4 Visual
Format profile : Advanced [email protected]
Format settings, BVOP : 2
Format settings, QPel : No
Format settings, GMC : No warppoints
Format settings, Matrix : Custom
Codec ID : XVID
Codec ID/Hint : XviD
Duration : 1h 33mn
Bit rate : 975 Kbps
Width : 688 pixels
Height : 288 pixels
Display aspect ratio : 2.40:1
Frame rate : 25.000 fps
Color space : YUV
Chroma subsampling : 4:2:0
Bit depth : 8 bits
Scan type : Progressive
Compression mode : Lossy
Bits/(Pixel*Frame) : 0.197
Stream size : 652 MiB (88%)
Writing library : XviD 61
Audio #1
ID : 1
Format : MPEG Audio
Format version : Version 1
Format profile : Layer 3
Codec ID : 55
Codec ID/Hint : MP3
Duration : 1h 33mn
Bit rate mode : Constant
Bit rate : 128 Kbps
Channel(s) : 2 channels
Sampling rate : 48.0 KHz
Compression mode : Lossy
Stream size : 85.5 MiB (12%)
Alignment : Aligned on interleaves
Interleave, duration : 40 ms (1.00 video frame)
Interleave, preload duration : 504 ms
Writing library : LAME3.98r
Encoding settings : -m s -V 4 -q 2 -lowpass 17 -b 128
Language : Undefined

Скриншот c названием фильма

Скриншоты



Создавать темы 05-Апр-2015 10:06

[Профиль]  [ЛС] 
Показать сообщения:    
Ответить на тему

Текущее время: 27-Сен 03:47

Часовой пояс: UTC + 5



Вы не можете начинать темы
Вы не можете отвечать на сообщения
Вы не можете редактировать свои сообщения
Вы не можете удалять свои сообщения
Вы не можете голосовать в опросах
Вы не можете прикреплять файлы к сообщениям
Вы не можете скачивать файлы