Состояние исступления / State of Grace (Фил Джоану) [1990, Великобритания, США, Триллер, драма, криминал, DVDRip] (Dub : Варус-Видео (с VHS))

Ответить на тему
 

Decadence ®

Стаж: 5 лет

Сообщений: 65

Симпатии: 32

Состояние исступления / State of Grace
Страна: Великобритания, США
Жанр: Триллер, драма, криминал
Год выпуска: 1990
Продолжительность: 02:08:38
Перевод: Профессиональный (дублированный) Варус-Видео (с VHS)
Cубтитры: нет
Режиссер: Фил Джоану
В ролях: Шон Пенн, Гари Олдман, Эд Харрис, Робин Райт, Джон Туртурро, Бёрджесс Мередит, Р.Д. Колл, Джо Витерелли, Джон Си Райли, Дирдри О’Коннелл
Описание: Терри вырос в Адской кухне, небольшом ирландском квартале в западной части Манхэттена. Вернувшись в Нью-Йорк после десятилетнего отсутствия, он встречает своего лучшего друга детства Джеки, чей брат Фрэнки стал боссом ирландской мафии, а сестра Кэтлин, первая любовь Терри, превратилась в очаровательную женщину.
Не вполне доверяя Терри, Фрэнки все-таки поручает ему вместе с Джеки выколачивать дань с местных торговцев. Никто еще не знает, что Терри — полицейский, работающий под прикрытием. И Терри мучительно разрывается между дружбой с Джеки, любовью к Кэтлин и необходимостью выполнить свой долг, упрятав Фрэнки за решетку.
Качество видео: DVDRip
Формат видео: AVI
Видео: XviD, 624x336, 25.000 fps, 733 kbps
Аудио: MP3, 48.0 KHz, 2 channels, 112 kbps

MediaInfo

General
Complete name : State Of Grace.avi
Format : AVI
Format/Info : Audio Video Interleave
File size : 787 MiB
Duration : 2h 8mn
Overall bit rate : 855 Kbps
Writing application : VirtualDubMod 1.5.10.2 (build 2540/release)
Writing library : VirtualDubMod build 2540/release
Video #0
ID : 0
Format : MPEG-4 Visual
Format profile : Advanced [email protected]
Format settings, BVOP : 1
Format settings, QPel : No
Format settings, GMC : No warppoints
Format settings, Matrix : Custom
Codec ID : XVID
Codec ID/Hint : XviD
Duration : 2h 8mn
Bit rate : 733 Kbps
Width : 624 pixels
Height : 336 pixels
Display aspect ratio : 1.85:1
Frame rate : 25.000 fps
Color space : YUV
Chroma subsampling : 4:2:0
Bit depth : 8 bits
Scan type : Progressive
Compression mode : Lossy
Bits/(Pixel*Frame) : 0.140
Stream size : 675 MiB (86%)
Writing library : XviD 1.2.1 (UTC 2008-12-04)
Audio #1
ID : 1
Format : MPEG Audio
Format version : Version 1
Format profile : Layer 3
Codec ID : 55
Codec ID/Hint : MP3
Duration : 2h 8mn
Bit rate mode : Constant
Bit rate : 112 Kbps
Channel(s) : 2 channels
Sampling rate : 48.0 KHz
Compression mode : Lossy
Stream size : 103 MiB (13%)
Alignment : Aligned on interleaves
Interleave, duration : 40 ms (1.00 video frame)
Interleave, preload duration : 504 ms
Writing library : LAME3.98r
Encoding settings : -m s -V 4 -q 2 -lowpass 15.6 -b 112

Скриншот c названием фильма

Скриншоты



Создавать темы 05-Апр-2015 10:33

[Профиль]  [ЛС] 
Показать сообщения:    
Ответить на тему

Текущее время: 25-Сен 05:56

Часовой пояс: UTC + 5



Вы не можете начинать темы
Вы не можете отвечать на сообщения
Вы не можете редактировать свои сообщения
Вы не можете удалять свои сообщения
Вы не можете голосовать в опросах
Вы не можете прикреплять файлы к сообщениям
Вы не можете скачивать файлы