Не говори ни слова / Don't Say a Word (Гэри Фледер) [2001, США, Австралия, Швейцария, Канада, Триллер, криминал, HDTVRip] (Dub)

Ответить на тему
 

Decadence ®

Стаж: 5 лет

Сообщений: 65

Симпатии: 32

Не говори ни слова / Don't Say a Word
Страна: США, Австралия, Швейцария, Канада
Жанр: Триллер, криминал
Год выпуска: 2001
Продолжительность: 01:53:36
Перевод: Профессиональный (дублированный)
Cубтитры: нет
Режиссер: Гэри Фледер
В ролях: Майкл Дуглас, Бриттани Мерфи, Шон Бин, Дженнифер Эспозито, Фамке Янссен, Скай МакКоул Бартусяк, Гай Торри, Шон Дойл, Виктор Арго, Конрад Гуд
Описание: «Вы хотите того же, что они?… Я никогда не скажу… никому из вас» — вот первые слова Элизабет, обращенные к знаменитому психиатру Натану Конраду. Элизабет, замкнутая в себе девушка, страдающая припадками немотивированной агрессии, причину которой никто до сих пор не смог объяснить и, тем более, устранить.
В Натане просыпается профессиональный интерес и он принимается за лечение, но проходит совсем немного времени, и он узнает, что Элизабет и ее болезнь каким-то таинственным образом связаны с опасностью, грозящей ему и его семье. Дочь психиатра похищают самым бесцеремонным образом, а за ним и его женой устанавливают круглосуточное наблюдение. Чтобы спасти дочь, Натану необходимо расшифровать шестизначный код, спрятанный в затуманенном сознании его пациентки.
Качество видео: HDTVRip
Формат видео: AVI
Видео: XviD, 624x352, 23.976 fps, 777 kbps
Аудио: MP3, 48.0 KHz, 2 channels, 128 kbps

MediaInfo

General
Complete name : Don't Say A Word.avi
Format : AVI
Format/Info : Audio Video Interleave
File size : 743 MiB
Duration : 1h 53mn
Overall bit rate : 915 Kbps
Writing application : VirtualDubMod 1.5.10.2 (build 2540/release)
Writing library : VirtualDubMod build 2540/release
Video #0
ID : 0
Format : MPEG-4 Visual
Format profile : Advanced [email protected]
Format settings, BVOP : 1
Format settings, QPel : No
Format settings, GMC : No warppoints
Format settings, Matrix : Custom
Codec ID : XVID
Codec ID/Hint : XviD
Duration : 1h 53mn
Bit rate : 777 Kbps
Width : 624 pixels
Height : 352 pixels
Display aspect ratio : 16:9
Frame rate : 23.976 fps
Color space : YUV
Chroma subsampling : 4:2:0
Bit depth : 8 bits
Scan type : Progressive
Compression mode : Lossy
Bits/(Pixel*Frame) : 0.148
Stream size : 632 MiB (85%)
Writing library : XviD 1.2.1 (UTC 2008-12-04)
Audio #1
ID : 1
Format : MPEG Audio
Format version : Version 1
Format profile : Layer 3
Codec ID : 55
Codec ID/Hint : MP3
Duration : 1h 53mn
Bit rate mode : Constant
Bit rate : 128 Kbps
Channel(s) : 2 channels
Sampling rate : 48.0 KHz
Compression mode : Lossy
Stream size : 104 MiB (14%)
Alignment : Aligned on interleaves
Interleave, duration : 42 ms (1.00 video frame)
Interleave, preload duration : 504 ms
Writing library : LAME3.97
Encoding settings : -m s -V 4 -q 2 -lowpass 17 -b 128

Скриншот c названием фильма

Скриншоты



Создавать темы 05-Апр-2015 11:33

[Профиль]  [ЛС] 
Показать сообщения:    
Ответить на тему

Текущее время: 17-Окт 21:49

Часовой пояс: UTC + 5



Вы не можете начинать темы
Вы не можете отвечать на сообщения
Вы не можете редактировать свои сообщения
Вы не можете удалять свои сообщения
Вы не можете голосовать в опросах
Вы не можете прикреплять файлы к сообщениям
Вы не можете скачивать файлы