Турбулентность / Turbulence (Роберт Батлер) [1997, США, Боевик, триллер, DVDRip] (MVO : СТС)

Ответить на тему
 

Decadence ®

Стаж: 5 лет 2 месяца

Сообщений: 65

Симпатии: 32

Турбулентность / Turbulence
Страна: США
Жанр: Боевик, триллер
Год выпуска: 1997
Продолжительность: 01:40:50
Перевод: Профессиональный (многоголосый закадровый) (СТС)
Cубтитры: нет
Режиссер: Роберт Батлер
В ролях: Рэй Лиотта, Лорен Холли, Брендан Глисон, Гектор Элизондо, Рэйчел Тикотин, Джеффри ДеМанн, Джон Финн, Бен Кросс, Кэтрин Хикс, Хайди Клинг
Описание: Насильник и убийца Райан Уивер попадает в руки полиции. Его вместе с другим бандитом по имени Стаббс решают переправить в лос-анджелесскую тюрьму. Неожиданно во время полета Стаббс делает попытку захватить самолет.
Почувствовав свой шанс, Райан перехватывает инициативу. Ситуация выходит из-под контроля. Дальнейшее развитие событий на борту вынуждает наземные службы поставить вопрос об уничтожении самолета.
Качество видео: DVDRip
Формат видео: AVI
Видео: DivX, 704x368, 23.976 fps, 894 kbps
Аудио: MP3, 48.0 KHz, 2 channels, 128 kbps

MediaInfo

General
Complete name : Turbulence.avi
Format : AVI
Format/Info : Audio Video Interleave
File size : 744 MiB
Duration : 1h 40mn
Overall bit rate : 1 031 Kbps
Writing application : VirtualDubModRus 1.5.10.2 (build 2540/release)VirtualDubMod build 2540/release
Video #0
ID : 0
Format : MPEG-4 Visual
Format settings, BVOP : 1
Format settings, QPel : No
Format settings, GMC : No warppoints
Format settings, Matrix : Default (H.263)
Muxing mode : Packed bitstream
Codec ID : DX50
Codec ID/Hint : DivX 5
Duration : 1h 40mn
Bit rate : 894 Kbps
Width : 704 pixels
Height : 368 pixels
Display aspect ratio : 1.913
Frame rate : 23.976 fps
Color space : YUV
Chroma subsampling : 4:2:0
Bit depth : 8 bits
Scan type : Progressive
Compression mode : Lossy
Bits/(Pixel*Frame) : 0.144
Stream size : 645 MiB (87%)
Writing library : DivX 6.8.5 (UTC 2009-08-20)
Audio #1
ID : 1
Format : MPEG Audio
Format version : Version 1
Format profile : Layer 3
Mode : Joint stereo
Mode extension : MS Stereo
Codec ID : 55
Codec ID/Hint : MP3
Duration : 1h 40mn
Bit rate mode : Constant
Bit rate : 128 Kbps
Channel(s) : 2 channels
Sampling rate : 48.0 KHz
Compression mode : Lossy
Stream size : 92.3 MiB (12%)
Alignment : Aligned on interleaves
Interleave, duration : 42 ms (1.00 video frame)
Interleave, preload duration : 504 ms

Скриншот c названием фильма

Скриншоты



Создавать темы 05-Апр-2015 11:50

[Профиль]  [ЛС] 
Показать сообщения:    
Ответить на тему

Текущее время: 18-Дек 06:29

Часовой пояс: UTC + 5



Вы не можете начинать темы
Вы не можете отвечать на сообщения
Вы не можете редактировать свои сообщения
Вы не можете удалять свои сообщения
Вы не можете голосовать в опросах
Вы не можете прикреплять файлы к сообщениям
Вы не можете скачивать файлы