Охотники / The Hunters (Ниша Ганатра) [2013, США, Приключения, HDRip] (Dub : [iTunes])

Ответить на тему
 

atgerkin ®

Стаж: 7 лет

Сообщений: 247

Симпатии: 78

Охотники / The Hunters- Страна: США
Жанр: Приключения
Год выпуска: 2013
Продолжительность: 01:25:28
Перевод: Профессиональный (многоголосый) [iTunes]
Cубтитры: нет
Режиссер: Ниша Ганатра-В ролях: Робби Амелл, Алекса ПенаВега, Виктор Гарбер, Мишель Форбс, Кинэн Трэйси, Arkanae «Nae» Boonsong, Эрик Брекер, Кира Клавелл, Ayesha Dhillon, Марк Ганиме-Описание: Семейство археологов разыскивает спрятанные по всему миру артефакты из легенд.-Доп. информация:
 
-Качество видео: HDRip
Формат видео: AVI
Видео: XviD ,1897 kb/s, 720x400
Аудио: AC3, 384 kb/s (6 ch)

MediaInfo

Общее
Полное имя : Ohotniki.20113.P.HDRip.avi
Формат : AVI
Формат/Информация : Audio Video Interleave
Размер файла : 1,37 Гбайт
Продолжительность : 1 ч. 25 м.
Общий поток : 2291 Кбит/сек
Программа кодирования : VirtualDubMod 1.5.10.2 (build 2540/release)
Библиотека кодирования : VirtualDubMod build 2540/release
Видео
Идентификатор : 0
Формат : MPEG-4 Visual
Профиль формата : Advanced [email protected]
Параметр BVOP формата : 2
Параметр QPel формата : Нет
Параметр GMC формата : Без точки перехода
Параметр матрицы формата : Default (MPEG)
Идентификатор кодека : XVID
Идентификатор кодека/Подсказка : XviD
Продолжительность : 1 ч. 25 м.
Битрейт : 1897 Кбит/сек
Ширина : 720 пикселей
Высота : 400 пикселей
Соотношение сторон : 16:9
Частота кадров : 25,000 кадров/сек
Цветовое пространство : YUV
Субдискретизация насыщенности : 4:2:0
Битовая глубина : 8 бит
Тип развёртки : Прогрессивная
Метод сжатия : С потерями
Бит/(Пиксели*Кадры) : 0.263
Размер потока : 1,13 Гбайт (83%)
Библиотека кодирования : XviD 1.2.1 (UTC 2008-12-04)
Аудио
Идентификатор : 1
Формат : AC-3
Формат/Информация : Audio Coding 3
Расширение режима : CM (complete main)
Параметр Endianness формата : Big
Идентификатор кодека : 2000
Продолжительность : 1 ч. 25 м.
Вид битрейта : Постоянный
Битрейт : 384 Кбит/сек
Каналы : 6 каналов
Расположение каналов : Front: L C R, Side: L R, LFE
Частота : 48,0 КГц
Битовая глубина : 16 бит
Метод сжатия : С потерями
Размер потока : 235 Мбайт (17%)
Выравнивание : Разделение по промежуткам
Продолжительность промежутка : 40 мс. (1,00 видеокадр)
Время предзагрузки промежутка : 500 мс.

Скриншот c названием фильма

Скриншоты:

Создавать темы 05-Апр-2015 12:02

[Профиль]  [ЛС] 
Показать сообщения:    
Ответить на тему

Текущее время: 14-Дек 05:13

Часовой пояс: UTC + 5



Вы не можете начинать темы
Вы не можете отвечать на сообщения
Вы не можете редактировать свои сообщения
Вы не можете удалять свои сообщения
Вы не можете голосовать в опросах
Вы не можете прикреплять файлы к сообщениям
Вы не можете скачивать файлы