Последние рыцари / Last Knights (Казуаки Кирия) [2015, Корея Южная, США, Боевик, Приключения, WEB-DL 720p](Line)

Ответить на тему
 

Suxrob89 ®

Стаж: 7 лет

Сообщений: 933

Симпатии: 564

-Последние рыцари / Last Knights-«Битва за честь, война за справедливость»- Страна: Корея Южная, США / Luka Productions, Czech Anglo Productions
Жанр: Боевик, Приключения
Год выпуска: 2015
Продолжительность: 01:54:54
Перевод: Дублированное [Чистый звук]
Cубтитры: английские
Оригинальная аудиодорожка: английский
Примечание: Присутствует около 4 минут вставок звука с TS.-Режиссер: Казуаки Кирия-В ролях: Клайв Оуэн, Морган Фриман, Ан Сон Ги, Пак Си Ен, Аксель Хенни, Дэниэл Адегбойега, Шоре Агдашлу, Джеймс Бэбсон, Павел Бездек, Дэниэл Флейшер-Браун-Описание: Средневековье, междоусобные распри раздирают королевство на мелкие анклавы, их правители наращивают собственные военные силы. Лишь истинный благородный воин — Король Барток — видит силу и будущее в единстве. При поддержке своих преданных и закаленных в сражениях рыцарей, он способен объединить земли. Но коварные враги уничтожают короля. И тогда его верные рыцари во имя высшей справедливости и отмщения чести своего господина выступают на штурм самой защищенной крепости королевства. Они готовятся взять реванш ценою собственных жизней.- -Качество видео: WEB-DL 720p
Формат видео: MKV
Видео: AVC, 3956 kb/s, 1280x528, 23.976 fps
Аудио: Russian: AC3, 192 kb/s (2 ch)
Аудио 2: English: AC3, 384 kb/s (6 ch)

MediaInfo

D:\Last.Knights.2015.D.WEB-DL.720p.mkv
General
Complete name : D:\Last.Knights.2015.D.WEB-DL.720p.mkv
Format : Matroska
File size : 3.71 GiB
Duration : 1h 54mn
Overall bit rate : 4 624 Kbps
Movie name : Last.Knights.2015.D.WEB-DL.720p.ELEKTRI4KA.uniongang.tv [Alice Grew]
Encoded date : UTC 2015-04-05 07:51:45
Writing application : mkvmerge v7.7.0 ('Six Voices') 32bit built on Feb 28 2015 23:23:00
Writing library : libebml v1.3.1 + libmatroska v1.4.2
Video #1
ID : 1
Format : AVC
Format/Info : Advanced Video Codec
Format profile : [email protected]
Format settings, CABAC : No
Format settings, ReFrames : 2 frames
Muxing mode : Container [email protected]
Codec ID : V_MPEG4/ISO/AVC
Duration : 1h 54mn
Bit rate mode : Variable
Bit rate : 3 956 Kbps
Width : 1 280 pixels
Height : 528 pixels
Display aspect ratio : 2.40:1
Frame rate : 23.976 fps
Color space : YUV
Chroma subsampling : 4:2:0
Bit depth : 8 bits
Scan type : Progressive
Bits/(Pixel*Frame) : 0.244
Stream size : 3.18 GiB (86%)
Title : Last.Knights.2015.D.WEB-DL.720p.ELEKTRI4KA.uniongang.tv [Alice Grew]
Language : English
Color primaries : BT.709-5, BT.1361, IEC 61966-2-4, SMPTE RP177
Transfer characteristics : BT.709-5, BT.1361
Matrix coefficients : BT.709-5, BT.1361, IEC 61966-2-4 709, SMPTE RP177
Audio #2
ID : 2
Format : AC-3
Format/Info : Audio Coding 3
Mode extension : CM (complete main)
Codec ID : A_AC3
Duration : 1h 54mn
Bit rate mode : Constant
Bit rate : 192 Kbps
Channel(s) : 2 channels
Channel positions : Front: L R
Sampling rate : 48.0 KHz
Bit depth : 16 bits
Stream size : 158 MiB (4%)
Title : Last.Knights.2015.D.WEB-DL.720p.ELEKTRI4KA.uniongang.tv [Alice Grew]
Language : Russian
Audio #3
ID : 3
Format : AC-3
Format/Info : Audio Coding 3
Mode extension : CM (complete main)
Codec ID : A_AC3
Duration : 1h 54mn
Bit rate mode : Constant
Bit rate : 384 Kbps
Channel(s) : 6 channels
Channel positions : Front: L C R, Side: L R, LFE
Sampling rate : 48.0 KHz
Bit depth : 16 bits
Stream size : 316 MiB (8%)
Title : Last.Knights.2015.D.WEB-DL.720p.ELEKTRI4KA.uniongang.tv [Alice Grew]
Language : English
Text #4
ID : 4
Format : UTF-8
Codec ID : S_TEXT/UTF8
Codec ID/Info : UTF-8 Plain Text

Скриншоты





Создавать темы 06-Апр-2015 06:38

[Профиль]  [ЛС] 

Fury_

Стаж: 2 года 5 месяцев

Сообщений: 22

Симпатии: 14

ay

Создавать темы 06-Апр-2015 23:00

[Профиль]  [ЛС] 

-OdilmaX-

Стаж: 2 года 5 месяцев

Сообщений: 425

Симпатии: 854

Ооо ради Морган Фриман-а стоит смотреть

Создавать темы 09-Апр-2015 12:57

[Профиль]  [ЛС] 

timawow1

Стаж: 6 лет 8 месяцев

Сообщений: 59

Симпатии: 32

Ну о4ень хороший фильм! Советую хотя бы 1 глазком посмотреть =) Автору спс за работу!

Создавать темы 10-Апр-2015 02:17

[Профиль]  [ЛС] 
Показать сообщения:    
Ответить на тему

Текущее время: 17-Авг 16:46

Часовой пояс: UTC + 5



Вы не можете начинать темы
Вы не можете отвечать на сообщения
Вы не можете редактировать свои сообщения
Вы не можете удалять свои сообщения
Вы не можете голосовать в опросах
Вы не можете прикреплять файлы к сообщениям
Вы не можете скачивать файлы