Последние рыцари / Last Knights (Казуаки Кирия) [2015, Южная Корея, США, Боевик, приключения, HDRip] Dub (Лицензия) + Original

Ответить на тему
 

lotto ®

Стаж: 7 лет 10 месяцев

Сообщений: 221

Симпатии: 409

Последние рыцари / Last Knights
«Битва за честь, война за справедливость»
-- Страна: Южная Корея, США
Жанр: Боевик, приключения
Год выпуска: 2015
Продолжительность: 01:49:45
Перевод: Профессиональный (дублированный) Лицензия
Cубтитры: нет--Режиссер: Казуаки Кирия
В ролях: Клайв Оуэн, Морган Фримен, Ан Сон Ги, Пак Си Ен, Аксель Хенни, Дэниэл Адегбойега, Шоре Агдашлу, Джеймс Бэбсон, Павел Бездек, Дэниэл Флейшер-Браун--Описание: Средневековье, междоусобные распри раздирают королевство на мелкие анклавы, их правители наращивают собственные военные силы. Лишь истинный благородный воин — Король Барток — видит силу и будущее в единстве. При поддержке своих преданных и закаленных в сражениях рыцарей, он способен объединить земли. Но коварные враги уничтожают короля. И тогда его верные рыцари во имя высшей справедливости и отмщения чести своего господина выступают на штурм самой защищенной крепости королевства. Они готовятся взять реванш ценою собственных жизней.-- --Качество видео: HDRip
Формат видео: AVI
Видео: XviD, 720x304, 1919 fps, 23.976
Аудио: AC3, 48 KHz, 6 ch, 448 kbps (русский, дублированный)
Аудио2: AC3, 48 KHz, 2 ch, 448 kbps (английский)

MediaInfo

General
Complete name : \Poslednie.rycari.2015.HDRip.2.17.GB.UNIONGANG.ELEKTRI4KA.avi
Format : AVI
Format/Info : Audio Video Interleave
Format profile : OpenDML
File size : 2.17 GiB
Duration : 1h 49mn
Overall bit rate : 2 834 Kbps
Movie name : Poslednie.rycari.2015.D.HDRip.ELEKTRI4KA.uniongang.tv
Writing application : VirtualDubMod 1.5.10.3 | www.virtualdub-fr.org || (build 2550/release)
Copyright : UNIONGANG&RUSTORRENTS
Video
ID : 0
Format : MPEG-4 Visual
Format profile : Advanced [email protected]
Format settings, BVOP : 2
Format settings, QPel : No
Format settings, GMC : No warppoints
Format settings, Matrix : Default (MPEG)
Muxing mode : Packed bitstream
Codec ID : XVID
Codec ID/Hint : XviD
Duration : 1h 49mn
Bit rate : 1 919 Kbps
Width : 720 pixels
Height : 304 pixels
Display aspect ratio : 2.35:1
Frame rate : 25.000 fps
Color space : YUV
Chroma subsampling : 4:2:0
Bit depth : 8 bits
Scan type : Progressive
Compression mode : Lossy
Bits/(Pixel*Frame) : 0.351
Stream size : 1.47 GiB (68%)
Writing library : XviD 73
Audio #1
ID : 1
Format : AC-3
Format/Info : Audio Coding 3
Mode extension : CM (complete main)
Format settings, Endianness : Big
Codec ID : 2000
Duration : 1h 49mn
Bit rate mode : Constant
Bit rate : 448 Kbps
Channel(s) : 6 channels
Channel positions : Front: L C R, Side: L R, LFE
Sampling rate : 48.0 KHz
Compression mode : Lossy
Stream size : 352 MiB (16%)
Alignment : Split accross interleaves
Interleave, duration : 40 ms (1.00 video frame)
Interleave, preload duratio : 500 ms
Audio #2
ID : 2
Format : AC-3
Format/Info : Audio Coding 3
Mode extension : CM (complete main)
Format settings, Endianness : Big
Codec ID : 2000
Duration : 1h 49mn
Bit rate mode : Constant
Bit rate : 448 Kbps
Channel(s) : 6 channels
Channel positions : Front: L C R, Side: L R, LFE
Sampling rate : 48.0 KHz
Compression mode : Lossy
Stream size : 352 MiB (16%)
Alignment : Split accross interleaves
Interleave, duration : 40 ms (1.00 video frame)
Interleave, preload duratio : 500 ms

Скриншот c названием фильма

Скриншоты







Последний раз редактировалось: lotto (2015-06-05 09:15), всего редактировалось 1 раз

Создавать темы 06-Апр-2015 09:37

[Профиль]  [ЛС] 

American

Стаж: 3 года 10 месяцев

Сообщений: 55

Симпатии: 7

Фильм классный!! Давно не было таких фильмов. Спасибо lotto.

Создавать темы 18-Апр-2015 16:05

[Профиль]  [ЛС] 

Shera_best

Стаж: 3 года 11 месяцев

Сообщений: 40

Симпатии: 12

ну очень напоминает 47 ронинов.
А так качество отл., 1 раз посмотреть можно.

Создавать темы 25-Апр-2015 07:36

[Профиль]  [ЛС] 

lotto ®

Стаж: 7 лет 10 месяцев

Сообщений: 221

Симпатии: 409

Обновил до лицензии.

Создавать темы 05-Июн-2015 09:15

[Профиль]  [ЛС] 
Показать сообщения:    
Ответить на тему

Текущее время: 18-Ноя 11:36

Часовой пояс: UTC + 5



Вы не можете начинать темы
Вы не можете отвечать на сообщения
Вы не можете редактировать свои сообщения
Вы не можете удалять свои сообщения
Вы не можете голосовать в опросах
Вы не можете прикреплять файлы к сообщениям
Вы не можете скачивать файлы