Бэйб: Четвероногий малыш / Babe (Крис Нунен / Chris Noonan) [1995, Австралия, США, драма, комедия, семейный, DVDRip] (Dub) (Original Eng)

Ответить на тему
 

Uzer5 ®

Стаж: 6 лет 4 месяца

Сообщений: 76

Симпатии: 13

Бэйб: Четвероногий малыш / Babe
Страна: Австралия, США
Жанр: драма, комедия, семейный
Год выпуска: 1995
Продолжительность: 1:31:51
Перевод: Профессиональный (дублированный)
Оригинальная аудиодорожка: английский
Режиссер: Крис Нунен / Chris Noonan
В ролях: Джеймс Кромуэлл (Farmer Arthur H. Hoggett), Магда Шубански (Esme Hoggett), Кристин Кавана (Babe, озвучка), Мириам Маргулис (Fly, озвучка), Дэнни Манн (Ferdinand, озвучка), Хьюго Уивинг (Rex, озвучка), Мириам Флинн (Maa, озвучка), Расси Тейлор (Duchess the Cat, озвучка), Эвелин Крэйп (Old Ewe, озвучка)
Описание: История о приключениях маленького необыкновенно умного поросенка йоркширской породы. Все животные на ферме Хоггетов имеют ярко выраженную индивидуальность и общаются между собой на человеческом языке. Люди при этом, разумеется, совершенно не в курсе дела.
Когда же хозяин начинает что-то подозревать, он сам включается в эту игру, надеясь использовать в хозяйстве вдруг проявившийся интеллект животных. Четвероногий малыш, тот самый поросенок, воспитанный овчаркой Флай, пытается доказать, что свинья годится не только для украшения рождественского стола (к чему дело как раз и шло), но способна выполнять работу, требующую ума и сообразительности — пасти овец.
Можете себе представить, как к этой идее относятся сами овцы! Не говоря об овчарках — какая профессиональная гордость такое выдержит?
Качество видео: DVDRip
Формат видео: AVI
Видео: Video: Xvid 704x400 23.976fps 1874kbps [V: mpeg4 advanced simple profile, yuv420p, 704x400, 1874 kb/s]
Аудио: Audio: Dolby AC3 48000Hz stereo 192kbps [A: ac3, 48000 Hz, stereo, 192 kb/s]
Аудио 2: Audio: Dolby AC3 48000Hz stereo 192kbps [A: ac3, 48000 Hz, stereo, 192 kb/s]

MediaInfo

General
Format : AVI
Format/Info : Audio Video Interleave
File size : 1.46 GiB
Duration : 1h 31mn
Overall bit rate : 2 273 Kbps
Director : zim2001
Writing application : VirtualDubMod 1.5.10.2 (build 2540/release)
Video
ID : 0
Format : MPEG-4 Visual
Format profile : Advanced [email protected]
Format settings, BVOP : Yes
Format settings, QPel : No
Format settings, GMC : No warppoints
Format settings, Matrix : Custom
Codec ID : XVID
Codec ID/Hint : XviD
Duration : 1h 31mn
Bit rate : 1 875 Kbps
Width : 704 pixels
Height : 400 pixels
Display aspect ratio : 16:9
Frame rate : 23.976 fps
Color space : YUV
Chroma subsampling : 4:2:0
Bit depth : 8 bits
Scan type : Progressive
Compression mode : Lossy
Bits/(Pixel*Frame) : 0.278
Stream size : 1.20 GiB (82%)
Writing library : XviD 56
Audio #1
ID : 1
Format : AC-3
Format/Info : Audio Coding 3
Mode extension : CM (complete main)
Format settings, Endianness : Big
Codec ID : 2000
Duration : 1h 31mn
Bit rate mode : Constant
Bit rate : 192 Kbps
Channel(s) : 2 channels
Channel positions : Front: L R
Sampling rate : 48.0 KHz
Bit depth : 16 bits
Compression mode : Lossy
Stream size : 126 MiB (8%)
Alignment : Split accross interleaves
Interleave, duration : 42 ms (1.00 video frame)
Interleave, preload duration : 500 ms
Audio #2
ID : 2
Format : AC-3
Format/Info : Audio Coding 3
Mode extension : CM (complete main)
Format settings, Endianness : Big
Codec ID : 2000
Duration : 1h 31mn
Bit rate mode : Constant
Bit rate : 192 Kbps
Channel(s) : 2 channels
Channel positions : Front: L R
Sampling rate : 48.0 KHz
Bit depth : 16 bits
Compression mode : Lossy
Stream size : 126 MiB (8%)
Alignment : Split accross interleaves
Interleave, duration : 42 ms (1.00 video frame)
Interleave, preload duration : 500 ms

Скриншот c названием фильма

Скриншоты


_________________
Подпись отключена за нарушение правил форума

Создавать темы 06-Апр-2015 13:38

[Профиль]  [ЛС] 
Показать сообщения:    
Ответить на тему

Текущее время: 19-Ноя 21:08

Часовой пояс: UTC + 5



Вы не можете начинать темы
Вы не можете отвечать на сообщения
Вы не можете редактировать свои сообщения
Вы не можете удалять свои сообщения
Вы не можете голосовать в опросах
Вы не можете прикреплять файлы к сообщениям
Вы не можете скачивать файлы