Girls / Девочки / Сезон: 4 полный / Серии: 1-10 из 10 (Лена Данэм) [2015, драма, комедия, HDTVRip] (MVO : Amedia) (Original)

Ответить на тему
 

saidali ®

Стаж: 5 лет 7 месяцев

Сообщений: 868

Симпатии: 554

--Girls / Девочки-Полный четвёртый сезон-- Год выпуска: 2015
Страна: США
Жанр: драма, комедия
Продолжительность: ~00:25:00-Перевод: Профессиональный многоголосый закадровый Amedia
Русские субтитры: нет
Режиссёр: Лена Данэм-В ролях: Лена Данэм, Эллисон Вильямс, Джемима Кирк, Зося Мамет, Адам Драйвер-Описание: Комедия рассказывает о нескольких девушках двадцатилетнего возраста, которым приходится испытывать унижения и лишь изредка знавать вкус победы.-Качество: HDTVRip
Формат: AVI
Видео кодек: XviD
Аудио кодек: AC3
Видео: 1200 kb/s, 720x400
Аудио: Russian / English: MP3, 128 kb/s (2 ch)
-Другие раздачи сериала: https://tas-ix.net/viewtopic.php?t=103616

MediaInfo

General
Complete name : E:\123\Раздачи\Girls. Амедиа\girls.s04e01.hdtvrip.amedia.avi
Format : AVI
Format/Info : Audio Video Interleave
File size : 300 MiB
Duration : 26mn 7s
Overall bit rate : 1 606 Kbps
Writing application : VirtualDubMod 1.6.0.0 SURROUND (build 2560/release)
Writing library : VirtualDubMod build 2560/release
Video
ID : 0
Format : MPEG-4 Visual
Format profile : Advanced [email protected]
Format settings, BVOP : 1
Format settings, QPel : No
Format settings, GMC : No warppoints
Format settings, Matrix : Default (MPEG)
Codec ID : XVID
Codec ID/Hint : XviD
Duration : 26mn 7s
Bit rate : 1 336 Kbps
Width : 720 pixels
Height : 400 pixels
Display aspect ratio : 16:9
Frame rate : 23.976 fps
Color space : YUV
Chroma subsampling : 4:2:0
Bit depth : 8 bits
Scan type : Progressive
Compression mode : Lossy
Bits/(Pixel*Frame) : 0.193
Stream size : 250 MiB (83%)
Writing library : XviD 1.2.1 (UTC 2008-12-04)
Audio #1
ID : 1
Format : MPEG Audio
Format version : Version 1
Format profile : Layer 3
Mode : Joint stereo
Mode extension : MS Stereo
Codec ID : 55
Codec ID/Hint : MP3
Duration : 26mn 7s
Bit rate mode : Constant
Bit rate : 128 Kbps
Channel(s) : 2 channels
Sampling rate : 48.0 KHz
Compression mode : Lossy
Stream size : 23.9 MiB (8%)
Alignment : Aligned on interleaves
Interleave, duration : 42 ms (1.00 video frame)
Interleave, preload duration : 504 ms
Audio #2
ID : 2
Format : MPEG Audio
Format version : Version 1
Format profile : Layer 3
Mode : Joint stereo
Mode extension : MS Stereo
Codec ID : 55
Codec ID/Hint : MP3
Duration : 26mn 7s
Bit rate mode : Constant
Bit rate : 128 Kbps
Channel(s) : 2 channels
Sampling rate : 48.0 KHz
Compression mode : Lossy
Stream size : 23.9 MiB (8%)
Alignment : Aligned on interleaves
Interleave, duration : 42 ms (1.00 video frame)
Interleave, preload duration : 504 ms
Writing library : LAME3.99r
Encoding settings : -m j -V 4 -q 2 -lowpass 17 -b 128

Скриншоты


Создавать темы 06-Апр-2015 14:17

[Профиль]  [ЛС] 
Показать сообщения:    
Ответить на тему

Текущее время: 25-Сен 02:16

Часовой пояс: UTC + 5



Вы не можете начинать темы
Вы не можете отвечать на сообщения
Вы не можете редактировать свои сообщения
Вы не можете удалять свои сообщения
Вы не можете голосовать в опросах
Вы не можете прикреплять файлы к сообщениям
Вы не можете скачивать файлы