Shokugeki no Souma / В поисках божественного рецепта [TV] [24 из 24] [Без хардсаба] [RUS(int)] [2015 г., комедия, HDTVRip] [720p]

Страницы :  1, 2, 3, 4  След.

Ответить на тему
 

[email protected] ®

Стаж: 4 года 3 месяца

Сообщений: 336

Симпатии: 143

- Страна: Япония
Год выпуска: 2015 г.
Жанр: комедия
Продолжительность: ТВ (>13 эп.), 25 мин.-Режиссер: Ёнэтани Ёситомо
Автор оригинала: Цукуда Юто
Студия: J.C. STAFF-Описание: Мечта Юкихиры Сомы - стать полноценным шеф-поваром ресторана своего отца и превзойти его в кулинарии. Но как только Юкихира закончил среднюю школу, Юкихира Джуничиро, его отец, закрывает ресторан и отправляется готовить в Америку. Боевой дух Сомы, который был угнетен, возрождается вызовом Джуничиро, цель которого выжить в элитной кулинарной школе, откуда выпускается только 10% учеников. Справится ли Сома с этим испытанием?-Информационные ссылки: AniDB | World Art | MAL-Качество: HDTVRip
Формат: MP4
Тип релиза: Без хардсаба
Озвучка: от Ancord & JAM & Тrina D [AniDub]-Видео: mp4 | AVC, 8 bits, 1280x720, 1776 kbps, 23,976 fps
Аудио: RU - AAC, 48.0 KHz, 16 bits, 192 kbps, 2ch;-

MediaInfo

General
Complete name                  : F:\Video\Аниме\[AniDub]_ Shokugeki no_Soma_[720p]_[Ancord_JAM_Trina_D]\[AniDub]_ Shokugeki no_Soma_[01]_[720p_x264_Aac]_[Ancord_JAM_Trina_D].mp4
Format                         : MPEG-4
Format profile                 : Base Media
Codec ID                       : isom
File size                      : 351 MiB
Duration                       : 24mn 57s
Overall bit rate mode          : Variable
Overall bit rate               : 1 969 Kbps
Encoded date                   : UTC 2015-04-04 20:04:06
Tagged date                    : UTC 2015-04-04 20:04:06
Writing application            : Yamb 2.1.0.0 [http://yamb.unite-video.com]
Video
ID                             : 1
Format                         : AVC
Format/Info                    : Advanced Video Codec
Format profile                 : [email protected]
Format settings, CABAC         : Yes
Format settings, ReFrames      : 6 frames
Codec ID                       : avc1
Codec ID/Info                  : Advanced Video Coding
Duration                       : 24mn 57s
Bit rate                       : 1 776 Kbps
Maximum bit rate               : 7 648 Kbps
Width                          : 1 280 pixels
Height                         : 720 pixels
Display aspect ratio           : 16:9
Frame rate mode                : Constant
Frame rate                     : 23.976 fps
Color space                    : YUV
Chroma subsampling             : 4:2:0
Bit depth                      : 8 bits
Scan type                      : Progressive
Bits/(Pixel*Frame)             : 0.080
Stream size                    : 316 MiB (90%)
Title                          : Ì
Writing library                : x264 core 120 r2120 0c7dab9
Encoding settings              : cabac=1 / ref=6 / deblock=1:1:1 / analyse=0x3:0x113 / me=umh / subme=8 / psy=1 / psy_rd=0.40:0.00 / mixed_ref=1 / me_range=16 / chroma_me=1 / trellis=1 / 8x8dct=1 / cqm=0 / deadzone=21,11 / fast_pskip=1 / chroma_qp_offset=-2 / threads=4 / sliced_threads=0 / nr=0 / decimate=1 / interlaced=0 / bluray_compat=0 / constrained_intra=0 / bframes=3 / b_pyramid=2 / b_adapt=2 / b_bias=0 / direct=3 / weightb=1 / open_gop=0 / weightp=2 / keyint=250 / keyint_min=23 / scenecut=40 / intra_refresh=0 / rc_lookahead=50 / rc=2pass / mbtree=1 / bitrate=1776 / ratetol=1.0 / qcomp=0.60 / qpmin=0 / qpmax=69 / qpstep=4 / cplxblur=20.0 / qblur=0.5 / vbv_maxrate=3552 / vbv_bufsize=8880 / nal_hrd=none / ip_ratio=1.40 / aq=1:0.60
Encoded date                   : UTC 2015-04-04 20:04:06
Tagged date                    : UTC 2015-04-04 20:04:11
Audio
ID                             : 2
Format                         : AAC
Format/Info                    : Advanced Audio Codec
Format profile                 : LC
Codec ID                       : 40
Duration                       : 24mn 57s
Bit rate mode                  : Variable
Bit rate                       : 192 Kbps
Maximum bit rate               : 200 Kbps
Channel(s)                     : 2 channels
Channel positions              : Front: L R
Sampling rate                  : 48.0 KHz
Compression mode               : Lossy
Stream size                    : 34.3 MiB (10%)
Language                       : Russian
Encoded date                   : UTC 2015-04-04 20:04:09
Tagged date                    : UTC 2015-04-04 20:04:11

Скриншоты





Последний раз редактировалось: [email protected] (2015-10-06 01:21), всего редактировалось 19 раз(а)

Создавать темы 06-Апр-2015 18:34

[Профиль]  [ЛС] 

farik9193

Стаж: 4 года 11 месяцев

Сообщений: 501

Симпатии: 47

Есть манга по возможности залью .

Создавать темы 13-Апр-2015 21:07

[Профиль]  [ЛС] 

[email protected] ®

Стаж: 4 года 3 месяца

Сообщений: 336

Симпатии: 143


2 серия

Создавать темы 14-Апр-2015 08:57

[Профиль]  [ЛС] 

TimaK

Стаж: 6 лет 5 месяцев

Сообщений: 129

Симпатии: 23

Ооо Да вышло аниме! мангу читал об этом просто бомба же )

Создавать темы 14-Апр-2015 10:36

[Профиль]  [ЛС] 

krocki

Стаж: 2 года 6 месяцев

Сообщений: 57

Симпатии: 1

Грузите 3 серию...она вышла.

Создавать темы 19-Апр-2015 02:31

[Профиль]  [ЛС] 

[email protected] ®

Стаж: 4 года 3 месяца

Сообщений: 336

Симпатии: 143

krocki, вот пожалуйста, не надо такого рода сообщений. Не поверите, но я был в курсе.-
3 серия

Комментарий от SNIL


Фансервис?) чёткая пикча)

Создавать темы 19-Апр-2015 10:45

[Профиль]  [ЛС] 

krocki

Стаж: 2 года 6 месяцев

Сообщений: 57

Симпатии: 1

[email protected], О! отлично!

Создавать темы 19-Апр-2015 18:53

[Профиль]  [ЛС] 

krocki

Стаж: 2 года 6 месяцев

Сообщений: 57

Симпатии: 1

Как насчёт 4 серии? Уже в процессе!

Создавать темы 29-Апр-2015 21:41

[Профиль]  [ЛС] 

[email protected] ®

Стаж: 4 года 3 месяца

Сообщений: 336

Симпатии: 143


4 серия

Создавать темы 30-Апр-2015 10:13

[Профиль]  [ЛС] 

krocki

Стаж: 2 года 6 месяцев

Сообщений: 57

Симпатии: 1

[email protected], СпасибоооО!

Создавать темы 30-Апр-2015 15:03

[Профиль]  [ЛС] 

farik9193

Стаж: 4 года 11 месяцев

Сообщений: 501

Симпатии: 47

чет эпизоды из манги добротно вырезают из онимэ (

Создавать темы 30-Апр-2015 20:36

[Профиль]  [ЛС] 

TimaK

Стаж: 6 лет 5 месяцев

Сообщений: 129

Симпатии: 23

934156чет эпизоды из манги добротно вырезают из онимэ (
У всех аниме так

Создавать темы 01-Май-2015 18:22

[Профиль]  [ЛС] 

Java Kun

Стаж: 6 лет 3 месяца

Сообщений: 112

Симпатии: 2

Когда прода???

Создавать темы 04-Май-2015 19:06

[Профиль]  [ЛС] 

krocki

Стаж: 2 года 6 месяцев

Сообщений: 57

Симпатии: 1

Java Kun, Вчера 5 серия вышла на Anidub'е.

Создавать темы 06-Май-2015 12:35

[Профиль]  [ЛС] 

Java Kun

Стаж: 6 лет 3 месяца

Сообщений: 112

Симпатии: 2

Нууу тогда будим ждать когда мистер [email protected], зальет

Создавать темы 07-Май-2015 00:29

[Профиль]  [ЛС] 
Показать сообщения:    
Ответить на тему

Текущее время: 24-Окт 10:59

Часовой пояс: UTC + 5



Вы не можете начинать темы
Вы не можете отвечать на сообщения
Вы не можете редактировать свои сообщения
Вы не можете удалять свои сообщения
Вы не можете голосовать в опросах
Вы не можете прикреплять файлы к сообщениям
Вы не можете скачивать файлы