Империя Солнца / Empire of the Sun (Стивен Спилберг / Steven Spielberg) [1987, США, драма, военный, история, BDRip] (Dub)

Ответить на тему
 

Scorpionxxx ®

Стаж: 2 года 4 месяца

Сообщений: 1

Империя Солнца / Empire of the Sun
Страна: США
Жанр: драма, военный, история
Год выпуска: 1987
Продолжительность: 02:32:49
Перевод: Профессиональный (дублированный)
Cубтитры: нет
Режиссер: Стивен Спилберг / Steven Spielberg
В ролях: Джон Малкович, Миранда Ричардсон, Найджел Хэверс, Джо Пантольяно, Лесли Филлипс, Роберт Стивенс, Пол МакГанн, Кристиан Бэйл, Дэвид Найдорф, Ральф Сеймур, Бен Стиллер
Описание: 1941 год, Вторая Мировая война. Юный англичанин Джим Грэхем живет в богатой семье в Китае. Японцы вторглись в Шанхай, Джим теряется в толпе и остается без родителей в захваченном городе. Во время скитаний находит друга Бэйзи, с которым попадает в лагерь заключенных.
Среди болезни и нехватки пищи, Джим борется за выживание, вынося предательства и оскорбления… Нити, связывающие его с детством, ослабевают, но Джим пытается сохранить дух и достоинство. Япония капитулировала. Перенеся все ужасы войны, превратившись из счастливого ребенка в измученного подростка, он, наконец, встречается со своими родителями.
Качество видео: BDRip
Формат видео: AVI
Видео: 688x384 (1.79:1), 23.976 fps, XviD build 73 ~1171 kbps avg, 0.19 bit/pixel
Аудио: 48 kHz, AC3 Dolby Digital, 2/0 (L,R) ch, ~192 kbps

MediaInfo

Общее
Полное имя : Empire.of.the.Sun.1987.BDRip.Dub_by_LBS.avi
Формат : AVI
Формат/Информация : Audio Video Interleave
Размер файла : 1,47 Гбайт
Продолжительность : 2 ч. 32 м.
Общий поток : 1373 Кбит/сек
Режиссёр : Last Boy Scout
Программа кодирования : VirtualDubMod 1.5.10.3 | www.virtualdub-fr.org || (build 2550/release)
Правообладатель : rutracker.org 03.01.2014
Примечание : BDRip Dub
Видео
Идентификатор : 0
Формат : MPEG-4 Visual
Профиль формата : Advanced [email protected]
Параметр BVOP формата : 1
Параметр QPel формата : Нет
Параметр GMC формата : Без точки перехода
Параметр матрицы формата : Выборочная
Идентификатор кодека : XVID
Идентификатор кодека/Подсказка : XviD
Продолжительность : 2 ч. 32 м.
Битрейт : 1171 Кбит/сек
Ширина : 688 пикселей
Высота : 384 пикселя
Соотношение сторон : 16:9
Частота кадров : 23,976 кадра/сек
Цветовое пространство : YUV
Субдискретизация насыщенности : 4:2:0
Битовая глубина : 8 бит
Тип развёртки : Прогрессивная
Метод сжатия : С потерями
Бит/(Пиксели*Кадры) : 0.185
Размер потока : 1,25 Гбайт (85%)
Библиотека кодирования : XviD 73
Аудио
Идентификатор : 1
Формат : AC-3
Формат/Информация : Audio Coding 3
Расширение режима : CM (complete main)
Параметр Endianness формата : Big
Идентификатор кодека : 2000
Продолжительность : 2 ч. 32 м.
Вид битрейта : Постоянный
Битрейт : 192 Кбит/сек
Каналы : 2 канала
Расположение каналов : Front: L R
Частота : 48,0 КГц
Битовая глубина : 16 бит
Метод сжатия : С потерями
Размер потока : 210 Мбайт (14%)
Выравнивание : Разделение по промежуткам
Продолжительность промежутка : 42 мс. (1,00 видеокадр)
Время предзагрузки промежутка : 500 мс.

Скриншоты



Создавать темы 06-Апр-2015 19:36

[Профиль]  [ЛС] 

Топик был перенесен из форума 250 лучших фильмов по версии IMDb в форум Фильмы до 2010
Grock

Создавать темы 08-Апр-2015 00:13

 

totsamiy

Стаж: 5 лет 2 месяца

Сообщений: 145

Симпатии: 22

в молодости смотрел много раз, отличный фильм...
Кинопоиск: 8.019 (12 728)
IMDb: 7.80 (79 475)

Создавать темы 08-Апр-2015 11:28

[Профиль]  [ЛС] 
Показать сообщения:    
Ответить на тему

Текущее время: 23-Авг 18:59

Часовой пояс: UTC + 5



Вы не можете начинать темы
Вы не можете отвечать на сообщения
Вы не можете редактировать свои сообщения
Вы не можете удалять свои сообщения
Вы не можете голосовать в опросах
Вы не можете прикреплять файлы к сообщениям
Вы не можете скачивать файлы