Единство / Вместе / Togetherness / Сезон: 1 полный / Серии: 1-8 из 8 (Джей Дюпласс, Марк Дюпласс) [2015, Комедия, HDTVRip] (MVO : Amedia) (rus sub + Original)

Ответить на тему
 

saidali ®

Стаж: 5 лет 7 месяцев

Сообщений: 868

Симпатии: 554

--Единство / Вместе / Togetherness-Полный первый сезон-- Год выпуска: 2015
Страна: США
Жанр: Комедия
Продолжительность: ~ 00:26:00 сери-Перевод: Профессиональный многоголосый закадровый Amedia
Русские субтитры: есть
Режиссёр: Джей Дюпласс, Марк Дюпласс-В ролях: Стив Зиссис, Марк Дюпласс, Мелани Лински, Аманда Пит, Эбби Райдер Фортсон, Кристи Линн Смит, Крэйг Стивенс, Дерек Мио, Джек Коллисон и др.-Описание: Новый комедийный сериал НВО о двух супружеских парах, которые начинают жить вместе. Женитьба – не повод съезжаться, а повод съезжаться с другими. Что из этого получится? Что-то очень смешное!-Качество: HDTVRip
Формат: AVI
Видео кодек: XviD
Аудио кодек: AC3
Видео: ~ 1600 kbps, 720x400 (16:9)
Аудио: 48.0 KHz, 2 ch, 192 kbps
Аудио 2: 48.0 KHz, 2 ch, 192 kbps
-

MediaInfo

General
Complete name : F:\Togetherness (S01)\Togetherness.s01e01.XviD.Amedia.[qqss44].avi
Format : AVI
Format/Info : Audio Video Interleave
File size : 400 MiB
Duration : 27mn 55s
Overall bit rate : 2 004 Kbps
Writing application : VirtualDubMod 1.5.10.3 | www.virtualdub-fr.org || (build 2550/release)
Writing library : VirtualDubMod build 2550/release
Video
ID : 0
Format : MPEG-4 Visual
Format profile : Advanced [email protected]
Format settings, BVOP : 2
Format settings, QPel : No
Format settings, GMC : No warppoints
Format settings, Matrix : Default (MPEG)
Codec ID : XVID
Codec ID/Hint : XviD
Duration : 27mn 55s
Bit rate : 1 606 Kbps
Width : 720 pixels
Height : 400 pixels
Display aspect ratio : 16:9
Frame rate : 23.976 fps
Color space : YUV
Chroma subsampling : 4:2:0
Bit depth : 8 bits
Scan type : Progressive
Compression mode : Lossy
Bits/(Pixel*Frame) : 0.233
Stream size : 321 MiB (80%)
Writing library : XviD 73
Audio #1
ID : 1
Format : AC-3
Format/Info : Audio Coding 3
Mode extension : CM (complete main)
Codec ID : 2000
Duration : 27mn 55s
Bit rate mode : Constant
Bit rate : 192 Kbps
Channel(s) : 2 channels
Channel positions : Front: L R
Sampling rate : 48.0 KHz
Bit depth : 16 bits
Compression mode : Lossy
Stream size : 38.3 MiB (10%)
Alignment : Split accross interleaves
Interleave, duration : 42 ms (1.00 video frame)
Interleave, preload duration : 500 ms
Audio #2
ID : 2
Format : AC-3
Format/Info : Audio Coding 3
Mode extension : CM (complete main)
Codec ID : 2000
Duration : 27mn 55s
Bit rate mode : Constant
Bit rate : 192 Kbps
Channel(s) : 2 channels
Channel positions : Front: L R
Sampling rate : 48.0 KHz
Bit depth : 16 bits
Compression mode : Lossy
Stream size : 38.3 MiB (10%)
Alignment : Split accross interleaves
Interleave, duration : 42 ms (1.00 video frame)
Interleave, preload duration : 500 ms

Скриншоты



Создавать темы 06-Апр-2015 22:21

[Профиль]  [ЛС] 
Показать сообщения:    
Ответить на тему

Текущее время: 23-Сен 05:01

Часовой пояс: UTC + 5



Вы не можете начинать темы
Вы не можете отвечать на сообщения
Вы не можете редактировать свои сообщения
Вы не можете удалять свои сообщения
Вы не можете голосовать в опросах
Вы не можете прикреплять файлы к сообщениям
Вы не можете скачивать файлы