Последняя битва / Ardennes Fury (Джозеф Дж. Лосон) [2014, США, боевик, военный, Web-DLRip] (VO)

Ответить на тему
 

Davron1402 ®

Стаж: 3 года 11 месяцев

Сообщений: 136

Симпатии: 122

Последняя битва / Ardennes Fury- Страна: США
Жанр: боевик, военный
Год выпуска: 2014
Продолжительность: 01:23:54
Перевод: Одноголосый закадровый
Cубтитры: нет
Режиссер: Джозеф Дж. Лосон
В ролях: Том Стэдхем
Билл Вурис
Тино Струкманн
Лэрри Гэмелл мл.
Лорен Вера
Yaron Urbas
Рут Холман
Трей Хью
Elvin Manges
Kyle Golden
Описание: Когда в Арденнах бушует битва, американское танковое подразделение попадает в ловушку позади нацистской линии обороны. За несколько часов до начала бомбардировки Арденнов, командир танка принимает рискованное решение, пойти на подмогу в детский приют, находящийся в самом эпицентре боевых действий.
Доп. информация:
Сценарий: Stephen Llorens, Джозеф Дж. Лосон
Продюсер: Дэвид Майкл Лэтт, Пол Бейлс, Лорен Е. Худ
Оператор: Ричард Дж. Виалет
Композитор: Крис Риденауа
Художник: Bob Peterson, Janet Longton
Монтаж: Роб Паллатина-Качество видео: Web-DLRip
Формат видео: AVI
Видео: xvid, 720 x 400 (16:9), 29.970 fps, 892 Kbps
Аудио: MPEG Audio, 44.1 KHz, 2 channels, 128 Kbps- 

MediaInfo

Расположение: D:\KINO\Ardennes.Fury.2014.avi
Имя файла: Ardennes.Fury.2014.avi
Формат файла: .avi (AVI)
Размер файла: 619.79 MB
Длительность: 1h 23mn
Навигация по главам: Нет
Bitrate (все потоки): 1 033 Kbps
...при помощи: Lavf51.12.1
Название: Ardennes.Fury.2014
Тип потока: Видео
Длительность: 01:23:54
Кодек: xvid
Кодек/ID: xvid
Размеры изображения: 720 x 400 (16:9)
Частота кадров: 29.970 fps
Размер потока: 535 MiB (86%)
Битрейт: 892 Kbps
Тип потока: Звук #1
Длительность: 01:23:54.109
Кодек: MPEG Audio
Кодек/Профиль: Layer 3
Кодек/ID: 55
Частота дискретизации: 44.1 KHz
Каналов: 2 channels
Битрейт: 128 Kbps
Битрейт/тип: Constant
Размер потока: 76.8 MiB (12%)
Метод сжатия: Lossy
Программа: LAME3.97

Скриншоты






Последний раз редактировалось: Davron1402 (2015-04-08 22:29), всего редактировалось 1 раз

Создавать темы 08-Апр-2015 11:57

[Профиль]  [ЛС] 

Старый Дядька

Стаж: 5 лет 3 месяца

Сообщений: 566

Симпатии: 400

Дорогой Davron1402.
Чтобы показать рейтинг фильма нужно воспользоваться кодом, этим:
[kp][/kp]
В середину между двух скобок нужно вставить ссылку с сайта kinopoisk.ru именно на ваш фильм.

Просто скопировать из стороки браузера.

В вашем случае это выглядит так:
[kp]http://www.kinopoisk.ru/film/869550/[/kp]
В готовом виде это будет выглядеть вот так.
Я думаю это несложно и вы сами будете это делать в дальнейшем.
 

Создавать темы 08-Апр-2015 21:20

[Профиль]  [ЛС] 

Davron1402 ®

Стаж: 3 года 11 месяцев

Сообщений: 136

Симпатии: 122

Старый Дядька, Спасибо, раньше я не знал.

Создавать темы 08-Апр-2015 22:34

[Профиль]  [ЛС] 

dilshod5254

Стаж: 6 лет 8 месяцев

Сообщений: 106

Симпатии: 14

неужели на столько плохо ?

Создавать темы 17-Апр-2015 15:00

[Профиль]  [ЛС] 
Показать сообщения:    
Ответить на тему

Текущее время: 17-Дек 09:20

Часовой пояс: UTC + 5



Вы не можете начинать темы
Вы не можете отвечать на сообщения
Вы не можете редактировать свои сообщения
Вы не можете удалять свои сообщения
Вы не можете голосовать в опросах
Вы не можете прикреплять файлы к сообщениям
Вы не можете скачивать файлы