Битва за Россию / The battle of Russia (Фрэнк Капра / Frank Capra, Анатоль Литвак / Anatole Litvak) [1943, США, документальный, военный, история, DVDRip]

Ответить на тему
 

lotto ®

Стаж: 7 лет 9 месяцев

Сообщений: 221

Симпатии: 409

Битва за Россию / The battle of Russia-- Год выпуска: 1943
Страна: США
Жанр: документальный, военный, история
Продолжительность: 01:22:46
Перевод: Профессиональный (одноголосый)
Русские субтитры: нет--Режиссура: Фрэнк Капра, Анатоль Литвак
В ролях: Ион Антонеску, Николай Черкасов, Антони Иден, Герман Геринг, Адольф Гитлер, Миклош Хорти, Уолтер Хьюстон, Альфред Йодль, Вильгельм Кейтель, Максим Литвинов, Есуке Мацуока, Вячеслав Молотов, Бенито Муссолини, Фридрих Паулюс, Константин Рокоссовский, Артур Шмидт, Хайле Селассие I, Михаил Шумилов, Николай Симонов, Иосиф Сталин, Энтони Вейллер, Иоахим фон Риббентроп, Николай Воронов, Георгий Жуков--Описание: «Битва за Россию» — пятый эпизод из 7-серийного пропагандистского документального фильма «Почему мы сражаемся» (Why We Fight) американского режиссёра Фрэнка Капры, самый длинный фильм из всего сериала. Снят им в сорежиссёрстве с Анатолем Литваком.
Первая часть фильма начинается с обзора предыдущих попыток захватить Россию: агрессии Тевтонского ордена в 1242 году (показаны кадры из фильма «Александр Невский» С. Эйзенштейна), нападения шведской армии под руководством Карла XII в 1704 году (показаны кадры из фильма «Пётр Первый» В. Петрова), похода Наполеона в 1812 году и нападения Германии в 1914 году. Далее проводится анализ причин того, почему Советский Союз представляет интерес для захватчиков, рассказывается об обширных территориях, богатых природными и человеческими ресурсами. Делается акцент на национальном разнообразии населения СССР. Далее освещается подготовка Германии к войне с Советским Союзом и события первых лет Великой Отечественной войны. Описываются немецкая тактика «клина и котла» (keil und kessel) и противостоящие ей советские тактики «глубокой обороны» (defense in depth), «выжженой земли», уличных боёв и партизанской войны.
Вторая часть фильма посвящена блокаде Ленинграда и Сталинградской битве.-- --Качество: DVDRip
Формат: AVI
Видео кодек: XviD
Аудио кодек: MP3
Видео: 704x528 (1.33:1), 25 fps, 2034 kbps
Аудио: 48 kHz, 2 ch, 320.00 kbps

MediaInfo

General
Complete name : \Bitva za Rossiju.1943.DVDRip.avi
Format : AVI
Format/Info : Audio Video Interleave
File size : 1.37 GiB
Duration : 1h 22mn
Overall bit rate : 2 364 Kbps
Movie name : Битва за Россию
Director : Rip by morgan73
Genre : Historical
Writing application : VirtualDubMod 1.5.10.3 | www.virtualdub-fr.org || (build 2550/release)
Writing library : VirtualDubMod build 2550/release
Original source form/Name : Documentary
Comment : tas-ix.net
Video
ID : 0
Format : MPEG-4 Visual
Format profile : Advanced [email protected]
Format settings, BVOP : 3
Format settings, QPel : No
Format settings, GMC : No warppoints
Format settings, Matrix : Default (MPEG)
Codec ID : XVID
Codec ID/Hint : XviD
Duration : 1h 22mn
Bit rate : 2 034 Kbps
Width : 704 pixels
Height : 528 pixels
Display aspect ratio : 4:3
Frame rate : 25.000 fps
Color space : YUV
Chroma subsampling : 4:2:0
Bit depth : 8 bits
Scan type : Progressive
Compression mode : Lossy
Bits/(Pixel*Frame) : 0.219
Stream size : 1.18 GiB (86%)
Writing library : XviD 1.2.1 (UTC 2008-12-04)
Audio
ID : 1
Format : MPEG Audio
Format version : Version 1
Format profile : Layer 3
Codec ID : 55
Codec ID/Hint : MP3
Duration : 1h 22mn
Bit rate mode : Constant
Bit rate : 320 Kbps
Channel(s) : 2 channels
Sampling rate : 48.0 KHz
Compression mode : Lossy
Stream size : 189 MiB (14%)
Alignment : Aligned on interleaves
Interleave, duration : 40 ms (1.00 video frame)
Interleave, preload duratio : 504 ms
Writing library : LAME3.98r
Encoding settings : -m s -V 4 -q 2 -lowpass 20.5

Скриншоты

Создавать темы 08-Апр-2015 15:46

[Профиль]  [ЛС] 

Olga1368

Стаж: 5 лет 8 месяцев

Сообщений: 72

Симпатии: 12

И кто проверит ?????

Создавать темы 09-Апр-2015 11:07

[Профиль]  [ЛС] 

Grock

Стаж: 6 лет 8 месяцев

Сообщений: 637

Симпатии: 113

Olga1368, проверил zd

Создавать темы 09-Апр-2015 12:34

[Профиль]  [ЛС] 
Показать сообщения:    
Ответить на тему

Текущее время: 20-Окт 03:01

Часовой пояс: UTC + 5



Вы не можете начинать темы
Вы не можете отвечать на сообщения
Вы не можете редактировать свои сообщения
Вы не можете удалять свои сообщения
Вы не можете голосовать в опросах
Вы не можете прикреплять файлы к сообщениям
Вы не можете скачивать файлы