Судьба/Ночь Схватки. Клинков бесконечный край / Fate/Stay Night Unlimited Blade Works [TV + Special] [12 + 1 из 12 + 1] [Без хардсаба] [RUS(int)] [2014 г., приключения, фэнтези, HDTVRip] [720p]

Ответить на тему
 

FireHowler ®

Стаж: 4 года 5 месяцев

Сообщений: 270

Симпатии: 153

Судьба/Ночь Схватки. Клинков бесконечный край
Fate/Stay Night Unlimited Blade Works
Страна: Япония
Год выпуска: 2014 г.
Жанр: приключения, фэнтези
Тип: TV
Продолжительность: 12 эп, ~25 мин. серия (нулевой эпизод, первый эпизод - 48 мин.)
Режиссер: Миура Такахиро
Студия: Ufotable
Описание: После смерти родителей Широ рос под присмотром мага, который спас его от смерти. Обученный приёмным отцом, Широ пытается познать магию, хотя отсутствие врождённых способностей, казалось бы, должно поставить крест на его стараниях. Но одна судьбоносная ночь меняет всё в жизни Широ. Теперь он втянут в смертельную битву между могущественными магами, и от гибели его спасет лишь внезапно обретённая Слуга - прекрасная девушка Сэйбер, виртуозно владеющая мечом...
© Kansai Studio
Информационные ссылки: World-Art | ANN | MAL | AniDB
Качество: HDTVRip
Тип релиза: Без хардсаба
Формат видео: MP4
Наличие линковки: Нет
Автор рипа: Leopard-raws
Видео: H264 (8 bit), 1280x720 (16:9), 1 503 kbps, 23,976 fps
Аудио: AAC, 192 kbps, 48 Khz, 2 ch | Язык Русский (в составе контейнера).
Озвучка: Многоголосая, закадровая.Студия KANSAI

Подробные тех. данные

General
Format : MPEG-4
Format profile : Base Media
Codec ID : isom
File size : 583 MiB
Duration : 48mn 0s
Overall bit rate mode : Variable
Overall bit rate : 1 699 Kbps
Encoded date : UTC 2014-10-06 01:15:02
Tagged date : UTC 2014-10-06 01:15:02
Writing application : Yamb 2.1.0.0
Video
ID : 1
Format : AVC
Format/Info : Advanced Video Codec
Format profile : [email protected]
Format settings, CABAC : Yes
Format settings, ReFrames : 4 frames
Codec ID : avc1
Codec ID/Info : Advanced Video Coding
Duration : 47mn 59s
Bit rate : 1 503 Kbps
Maximum bit rate : 11.7 Mbps
Width : 1 280 pixels
Height : 720 pixels
Display aspect ratio : 16:9
Frame rate mode : Constant
Frame rate : 23.976 fps
Color space : YUV
Chroma subsampling : 4:2:0
Bit depth : 8 bits
Scan type : Progressive
Bits/(Pixel*Frame) : 0.068
Stream size : 516 MiB (88%)
Title : 264
Writing library : x264 core 129 r2245+729M 1a52e03
Encoding settings : cabac=1 / ref=4 / deblock=1:1:-1 / analyse=0x3:0x113 / me=umh / subme=9 / psy=1 / fade_compensate=0.00 / psy_rd=1.00:0.00 / mixed_ref=1 / me_range=24 / chroma_me=1 / trellis=2 / 8x8dct=1 / cqm=0 / deadzone=21,11 / fast_pskip=1 / chroma_qp_offset=-2 / threads=8 / lookahead_threads=1 / sliced_threads=0 / nr=0 / decimate=1 / interlaced=0 / bluray_compat=0 / constrained_intra=0 / fgo=0 / bframes=9 / b_pyramid=2 / b_adapt=2 / b_bias=0 / direct=1 / weightb=1 / open_gop=0 / weightp=2 / keyint=240 / keyint_min=24 / scenecut=40 / intra_refresh=0 / rc=crf / mbtree=0 / crf=18.0 / qcomp=0.72 / qpmin=0 / qpmax=69 / qpstep=4 / ip_ratio=1.40 / pb_ratio=1.30 / aq=1:0.85
Encoded date : UTC 2014-10-05 02:09:03
Tagged date : UTC 2014-10-06 01:15:29
Color primaries : BT.709
Transfer characteristics : BT.709
Matrix coefficients : BT.709
Audio
ID : 2
Format : AAC
Format/Info : Advanced Audio Codec
Format profile : LC
Codec ID : 40
Duration : 48mn 0s
Bit rate mode : Variable
Bit rate : 192 Kbps
Maximum bit rate : 202 Kbps
Channel(s) : 2 channels
Channel positions : Front: L R
Sampling rate : 48.0 KHz
Compression mode : Lossy
Stream size : 65.9 MiB (11%)
Title : Kansai
Language : Russian
Encoded date : UTC 2014-10-06 01:15:29
Tagged date : UTC 2014-10-06 01:15:29

Список эпизодов

00. Пролог
01. Зимние дни, судьбоносная ночь
02. Занавес поднимается
03. Первая битва
04. Найти силы сражаться
05. Танцы после школы
06. Наваждение
07. Приз за смертельную битву
08. Зимние дни, там где сердце.
09. Разница между ними.
10. Пятый участник.
11. Нежданный гость.
12. Окончательное решение.

Скриншоты



Последний раз редактировалось: FireHowler (2015-04-09 10:35), всего редактировалось 1 раз

Создавать темы 08-Апр-2015 19:56

[Профиль]  [ЛС] 

daniellya

Стаж: 5 лет 6 месяцев

Сообщений: 338

Симпатии: 29

Судьба/ Ночь остановки: Бесконечный Блейд работает )

Создавать темы 08-Апр-2015 20:55

[Профиль]  [ЛС] 

[email protected]

Стаж: 4 года 3 месяца

Сообщений: 336

Симпатии: 143

FireHowler, в самой теме допишите заголовок и здесь тоже!

Создавать темы 09-Апр-2015 08:30

[Профиль]  [ЛС] 

FireHowler ®

Стаж: 4 года 5 месяцев

Сообщений: 270

Симпатии: 153

Уважаемые, я раздал 20гб, а сидер всего 1. Вернитесь на раздачу.

Создавать темы 18-Апр-2015 21:52

[Профиль]  [ЛС] 

krocki

Стаж: 2 года 6 месяцев

Сообщений: 57

Симпатии: 1

darkus, спасибо за радачу ay

Создавать темы 07-Июн-2015 20:52

[Профиль]  [ЛС] 

Price

Стаж: 5 лет 1 месяц

Сообщений: 35

Симпатии: 5

тому кому раздал имей советь не уходи с раздачи оставайся неблагодарный

Создавать темы 20-Окт-2015 19:07

[Профиль]  [ЛС] 
Показать сообщения:    
Ответить на тему

Текущее время: 24-Окт 11:01

Часовой пояс: UTC + 5



Вы не можете начинать темы
Вы не можете отвечать на сообщения
Вы не можете редактировать свои сообщения
Вы не можете удалять свои сообщения
Вы не можете голосовать в опросах
Вы не можете прикреплять файлы к сообщениям
Вы не можете скачивать файлы