Американская одиссея / American Odyssey / Сезон: 1 / Серии: 1-13 из 13 (Джэми Пэйн, Питер Хортон) [2015, триллер, драма, WEB-DLRip] (MVO : NewStudio) (Original)

Страницы :  1, 2  След.

Ответить на тему
 

Sunnat1999 ®

Стаж: 4 года 9 месяцев

Сообщений: 756

Симпатии: 416

Американская одиссея / American Odyssey«The world thinks she's dead. The truth will change everything»- Год выпуска: 2015...
Страна: США
Жанр: триллер, драма
Продолжительность: ~ 00:47:00-Перевод: Профессиональный (многоголосый) [NewStudio]
Режиссёр: Джэми Пэйн, Питер Хортон-В ролях: Анна Фрил, Питер Фачинелли, ДжонДжош Ромаро, Адевале Акиннуойе-Агбадже, Трит Уильямс, Даниэлла Пинеда, Нат Муни, Келли МакКрири, Джейк Робинсон, Ронан Саммерс-Описание: Бедствующая женщина-солдат, разочарованный корпоративный юрист и презираемый политический деятель оказываются вовлечены в международный заговор.-Доп. информация:
 
-Качество: WEB-DLRip
Формат: AVI
Видео кодек: XviD
Аудио кодек: MP3
Видео: XviD, ~ 1580 Кбит/с, 720x400
Аудио: Русский MP3, 2 ch, 128 Кбит/с
Аудио 2: Английский MP3, 2 ch, 128 Кбит/с

MediaInfo

Общее
Полное имя : American Odyssey (S01) NewStudio\American.Odyssey.s01e01.WEBDLRip.NewStudio.TV.avi
Формат : AVI
Формат/Информация : Audio Video Interleave
Размер файла : 699 Мбайт
Продолжительность : 52 м.
Общий поток : 1848 Кбит/сек
Программа кодирования : VirtualDubMod 1.5.10.2 (build 2540/release)
Библиотека кодирования : VirtualDubMod build 2540/release
Видео
Идентификатор : 0
Формат : MPEG-4 Visual
Профиль формата : Advanced [email protected]
Параметр BVOP формата : Нет
Параметр QPel формата : Нет
Параметр GMC формата : Без точки перехода
Параметр матрицы формата : Default (H.263)
Идентификатор кодека : XVID
Идентификатор кодека/Подсказка : XviD
Продолжительность : 52 м.
Битрейт : 1578 Кбит/сек
Ширина : 720 пикселей
Высота : 400 пикселей
Соотношение сторон : 16:9
Частота кадров : 23,976 кадра/сек
Цветовое пространство : YUV
Субдискретизация насыщенности : 4:2:0
Битовая глубина : 8 бит
Тип развёртки : Прогрессивная
Метод сжатия : С потерями
Бит/(Пиксели*Кадры) : 0.229
Размер потока : 597 Мбайт (85%)
Библиотека кодирования : XviD 73
Аудио #1
Идентификатор : 1
Формат : MPEG Audio
Версия формата : Version 1
Профиль формата : Layer 3
Режим : Joint stereo
Расширение режима : MS Stereo
Идентификатор кодека : 55
Идентификатор кодека/Подсказка : MP3
Продолжительность : 52 м.
Вид битрейта : Постоянный
Битрейт : 128 Кбит/сек
Каналы : 2 канала
Частота : 48,0 КГц
Метод сжатия : С потерями
Размер потока : 48,4 Мбайт (7%)
Выравнивание : Соединение по промежуткам
Продолжительность промежутка : 42 мс. (1,00 видеокадр)
Время предзагрузки промежутка : 504 мс.
Аудио #2
Идентификатор : 2
Формат : MPEG Audio
Версия формата : Version 1
Профиль формата : Layer 3
Режим : Joint stereo
Расширение режима : MS Stereo
Идентификатор кодека : 55
Идентификатор кодека/Подсказка : MP3
Продолжительность : 52 м.
Вид битрейта : Постоянный
Битрейт : 128 Кбит/сек
Каналы : 2 канала
Частота : 48,0 КГц
Метод сжатия : С потерями
Размер потока : 48,4 Мбайт (7%)
Выравнивание : Соединение по промежуткам
Продолжительность промежутка : 42 мс. (1,00 видеокадр)
Время предзагрузки промежутка : 504 мс.
Библиотека кодирования : LAME3.90.3

Скриншот с названием фильма

Скриншоты


Последний раз редактировалось: Sunnat1999 (2015-07-06 09:58), всего редактировалось 16 раз(а)

Создавать темы 09-Апр-2015 08:50

[Профиль]  [ЛС] 

Sunnat1999 ®

Стаж: 4 года 9 месяцев

Сообщений: 756

Симпатии: 416

ДОБАВЛЕНА 2 СЕРИЯ, ПОЖАЛУЙСТА ОБНОВИТЕ ТОРРЕНТ !

Создавать темы 16-Апр-2015 06:08

[Профиль]  [ЛС] 

Sunnat1999 ®

Стаж: 4 года 9 месяцев

Сообщений: 756

Симпатии: 416

ДОБАВЛЕНА 3 СЕРИЯ, ПОЖАЛУЙСТА ОБНОВИТЕ ТОРРЕНТ !

Создавать темы 22-Апр-2015 06:23

[Профиль]  [ЛС] 

Sunnat1999 ®

Стаж: 4 года 9 месяцев

Сообщений: 756

Симпатии: 416

ДОБАВЛЕНА 4 СЕРИЯ, ПОЖАЛУЙСТА ОБНОВИТЕ ТОРРЕНТ !

Создавать темы 28-Апр-2015 16:26

[Профиль]  [ЛС] 

Rolex

Стаж: 5 лет 10 месяцев

Сообщений: 59

Симпатии: 11

Смачный сериал, чем то смахивает на "Побег из тюрьмы"

Создавать темы 01-Май-2015 04:26

[Профиль]  [ЛС] 

Sunnat1999 ®

Стаж: 4 года 9 месяцев

Сообщений: 756

Симпатии: 416

ДОБАВЛЕНА 5 СЕРИЯ, ПОЖАЛУЙСТА ОБНОВИТЕ ТОРРЕНТ !

Создавать темы 06-Май-2015 18:27

[Профиль]  [ЛС] 

Sunnat1999 ®

Стаж: 4 года 9 месяцев

Сообщений: 756

Симпатии: 416

ДОБАВЛЕНА 6 СЕРИЯ, ПОЖАЛУЙСТА ОБНОВИТЕ ТОРРЕНТ !

Создавать темы 15-Май-2015 05:51

[Профиль]  [ЛС] 

Sunnat1999 ®

Стаж: 4 года 9 месяцев

Сообщений: 756

Симпатии: 416

ДОБАВЛЕНА 7 СЕРИЯ, ПОЖАЛУЙСТА ОБНОВИТЕ ТОРРЕНТ !

Создавать темы 20-Май-2015 06:37

[Профиль]  [ЛС] 

Sunnat1999 ®

Стаж: 4 года 9 месяцев

Сообщений: 756

Симпатии: 416

ДОБАВЛЕНА 8 СЕРИЯ, ПОЖАЛУЙСТА ОБНОВИТЕ ТОРРЕНТ !

Создавать темы 28-Май-2015 09:04

[Профиль]  [ЛС] 

Sunnat1999 ®

Стаж: 4 года 9 месяцев

Сообщений: 756

Симпатии: 416

ДОБАВЛЕНА 9 СЕРИЯ, ПОЖАЛУЙСТА ОБНОВИТЕ ТОРРЕНТ !

Создавать темы 03-Июн-2015 07:17

[Профиль]  [ЛС] 

Sunnat1999 ®

Стаж: 4 года 9 месяцев

Сообщений: 756

Симпатии: 416

ДОБАВЛЕНА 10 СЕРИЯ, ПОЖАЛУЙСТА ОБНОВИТЕ ТОРРЕНТ !

Создавать темы 10-Июн-2015 08:16

[Профиль]  [ЛС] 

Rolex

Стаж: 5 лет 10 месяцев

Сообщений: 59

Симпатии: 11

Sunnat1999 ®, Спасибо, это один из лучших сериалов что я видел!

Создавать темы 10-Июн-2015 15:35

[Профиль]  [ЛС] 

Sunnat1999 ®

Стаж: 4 года 9 месяцев

Сообщений: 756

Симпатии: 416

939863Sunnat1999 ®, Спасибо, это один из лучших сериалов что я видел!
Очень рад. Приятного просмотра.

Создавать темы 10-Июн-2015 19:31

[Профиль]  [ЛС] 

Sunnat1999 ®

Стаж: 4 года 9 месяцев

Сообщений: 756

Симпатии: 416

ДОБАВЛЕНА 11 СЕРИЯ, ПОЖАЛУЙСТА ОБНОВИТЕ ТОРРЕНТ !

Создавать темы 17-Июн-2015 06:11

[Профиль]  [ЛС] 

Sunnat1999 ®

Стаж: 4 года 9 месяцев

Сообщений: 756

Симпатии: 416

ДОБАВЛЕНА 12 СЕРИЯ, ПОЖАЛУЙСТА ОБНОВИТЕ ТОРРЕНТ !

Создавать темы 23-Июн-2015 08:48

[Профиль]  [ЛС] 
Показать сообщения:    
Ответить на тему

Текущее время: 16-Дек 02:48

Часовой пояс: UTC + 5



Вы не можете начинать темы
Вы не можете отвечать на сообщения
Вы не можете редактировать свои сообщения
Вы не можете удалять свои сообщения
Вы не можете голосовать в опросах
Вы не можете прикреплять файлы к сообщениям
Вы не можете скачивать файлы