Леди против Дворецких / Ladies versus Butlers! [12 из 12] [RUS(int.)] [2010, комедия, этти, романтика, школа WEB-DLRip] [720p]

Ответить на тему
 

Booom ®

Стаж: 4 года 10 месяцев

Сообщений: 32

Симпатии: 49

Леди против Дворецких
Ladies versus Butlers
-Страна: Япония
Год: 2010
Жанр: комедия, этти, романтика, школа-Возрастное ограничение: 16+
Количество серий: 12, 25мин
Дата выпуска: c 05.01.2010 по 23.03.2010-Озвучивание:
  • Ancord (В составе контента)
-Перевод:snapster, BlackHowk, VanTuz, StormHeart-Студия:
Режиссер: Оцуки Ацуси
Автор оригинала: Кодзуки Цукаса-Описание:Романтическая школьная комедия повествует о Хино Акихару, обычном старшекласснике которому не повезло уродится похожим на несовершеннолетнего преступника, у него зловещий взгляд, шрам под правой бровью и ощетинившиеся волосы. Это не считая пирсинга в ушах. И вот Акихару поступает в академию, которая была реорганизована из школы для девушек из высшего общества, в департамент тренировки слуг. Здесь студентов обучают на служанок и дворецких. Акихара хочет стать дворецким, но благодаря его внешности, пугающей девушек, наш славный герой постоянно вступает с ними в конфликты.-Качество: WEB-DLRip
Формат: MP4
Видео: x264, 1280x720, ~1994 kbps, 25.900 fps
Аудио: AAC, 44,1 Hz, 2 ch, 128кбит\с

Скриншоты

Media Info

Видео
Идентификатор : 1
Формат : AVC
Формат/Информация : Advanced Video Codec
Профиль формата : [email protected]
Параметр CABAC формата : Да
Параметр ReFrames формата : 3 кадра
Идентификатор кодека : avc1
Идентификатор кодека/Информация : Advanced Video Coding
Продолжительность : 24 м.
Битрейт : 1713 Кбит/сек
Номинальный битрейт : 1800 Кбит/сек
Ширина : 1280 пикселей
Высота : 720 пикселей
Соотношение сторон : 16:9
Режим частоты кадров : Переменный
Частота кадров : 23,976 кадра/сек
Частота кадров в оригинале : 25,000 кадров/сек
Минимальная частота кадров : 12,500 кадров/сек
Максимальная частота кадров : 25,000 кадров/сек
Цветовое пространство : YUV
Субдискретизация насыщенности : 4:2:0
Битовая глубина : 8 бит
Тип развёртки : Прогрессивная
Бит/(Пиксели*Кадры) : 0.078
Размер потока : 295 Мбайт (93%)
Библиотека кодирования : x264 core 79
Настройки программы : cabac=1 / ref=3 / deblock=1:0:0 / analyse=0x3:0x113 / me=hex / subme=7 / psy=1 / psy_rd=1.0:0.0 / mixed_ref=1 / me_range=16 / chroma_me=1 / trellis=1 / 8x8dct=1 / cqm=0 / deadzone=21,11 / chroma_qp_offset=-2 / threads=24 / nr=0 / decimate=1 / mbaff=0 / constrained_intra=0 / bframes=3 / b_pyramid=0 / b_adapt=1 / b_bias=0 / direct=1 / wpredb=32 / wpredp=2 / keyint=250 / keyint_min=25 / scenecut=40 / rc_lookahead=40 / rc=abr / mbtree=1 / bitrate=1800 / ratetol=2.2 / qcomp=0.60 / qpmin=10 / qpmax=51 / qpstep=4 / ip_ratio=1.41 / aq=1:1.00
Язык : Japanese
Дата кодирования : UTC 1970-01-01 00:00:00
Дата пометки : UTC 1970-01-01 00:00:00
Аудио
Идентификатор : 2
Формат : AAC
Формат/Информация : Advanced Audio Codec
Профиль формата : LC
Идентификатор кодека : 40
Продолжительность : 24 м.
Вид битрейта : Переменный
Битрейт : 128 Кбит/сек
Каналы : 2 канала
Расположение каналов : Front: L R
Частота : 44,1 КГц
Метод сжатия : С потерями
Размер потока : 22,1 Мбайт (7%)
Язык : Russian
Дата кодирования : UTC 1970-01-01 00:00:00
Дата пометки : UTC 1970-01-01 00:00:00

Создавать темы 09-Апр-2015 09:35

[Профиль]  [ЛС] 

Booom ®

Стаж: 4 года 10 месяцев

Сообщений: 32

Симпатии: 49

w t F

Создавать темы 18-Апр-2015 00:41

[Профиль]  [ЛС] 
Показать сообщения:    
Ответить на тему

Текущее время: 12-Дек 05:38

Часовой пояс: UTC + 5



Вы не можете начинать темы
Вы не можете отвечать на сообщения
Вы не можете редактировать свои сообщения
Вы не можете удалять свои сообщения
Вы не можете голосовать в опросах
Вы не можете прикреплять файлы к сообщениям
Вы не можете скачивать файлы