Маша и Медведь. Машкины страшилки / (4 серия про котёнка) (Олег Ужинов, Денис Червяцов, Олег Кузовков) [2015 г., Мультсериал, детский, приключения, комедия, WEB-DL.1080p]

Ответить на тему
 

igor1968 ®

Стаж: 5 лет 6 месяцев

Сообщений: 366

Симпатии: 197

Маша и Медведь. Машкины страшилки /(4 серия про котёнка)
Год выпуска: 2015
Страна: Россия
Жанр: Мультсериал, детский, приключения, комедия
Продолжительность: 00:05:41
Перевод: Не требуется
Режиссер: Олег Ужинов, Денис Червяцов, Олег Кузовков
В ролях: Алина Кукушкина
Описание: Новый проект студии "Анимаккорд" - "Машкины страшилки"... Все дети боятся темноты. Маша раньше тоже так её боялась, что приходилось ей по ночам с фонариком сидеть! Но однажды Маша придумала сказочку про маленького лесного жучка, который тоже боялся темноты... Трепещите! Маша взялась за новый жанр - теперь она рассказывает страшилки!
Качество: WEB-DL.1080p
Формат: MKV
Видео кодек: H.264
Аудио кодек: AC3
Видео: 1920x1080 (16:9) H264/AVC 4 916 Kbps
Аудио: Dolby AC3 48000Hz stereo 192kbps-

MediaInfo

General
Unique ID : 203130606057916425102238786770062410348 (0x98D1881C5DF7100EB3FEFD7BE41A026C)
Complete name : Машкины страшилки.WEB-DL.1080p.-merci-\04. Про котенка. WEB-DL.1080p.x264.-merci-.mkv
Format : Matroska
Format version : Version 2
File size : 212 MiB
Duration : 5mn 41s
Overall bit rate : 5 211 Kbps
Movie name : Машкины страшилки / 2014-2015 / -merci -
Encoded date : UTC 2015-04-08 16:36:37
Writing application : mkvmerge v5.8.0 ('No Sleep / Pillow') built on Sep 2 2012 15:37:04
Writing library : libebml v1.2.3 + libmatroska v1.3.0
Video
ID : 1
Format : AVC
Format/Info : Advanced Video Codec
Format profile : [email protected]
Format settings, CABAC : Yes
Format settings, ReFrames : 2 frames
Codec ID : V_MPEG4/ISO/AVC
Duration : 5mn 41s
Bit rate : 4 916 Kbps
Width : 1 920 pixels
Height : 1 080 pixels
Display aspect ratio : 16:9
Frame rate mode : Constant
Frame rate : 25.000 fps
Color space : YUV
Chroma subsampling : 4:2:0
Bit depth : 8 bits
Scan type : Progressive
Bits/(Pixel*Frame) : 0.095
Stream size : 200 MiB (94%)
Title : 04. Про котенка. WEB-DL.1080p.x264.-merci-
Language : Russian
Default : Yes
Forced : No
Color primaries : BT.709
Transfer characteristics : BT.709
Matrix coefficients : BT.709
Audio
ID : 2
Format : AC-3
Format/Info : Audio Coding 3
Mode extension : CM (complete main)
Format settings, Endianness : Big
Codec ID : A_AC3
Duration : 5mn 41s
Bit rate mode : Constant
Bit rate : 192 Kbps
Channel count : 2 channels
Channel positions : Front: L R
Sampling rate : 48.0 KHz
Bit depth : 16 bits
Compression mode : Lossy
Stream size : 7.82 MiB (4%)
Language : Russian
Default : Yes
Forced : No
-

Скриншоты


Создавать темы 09-Апр-2015 11:06

[Профиль]  [ЛС] 
Показать сообщения:    
Ответить на тему

Текущее время: 26-Сен 03:09

Часовой пояс: UTC + 5



Вы не можете начинать темы
Вы не можете отвечать на сообщения
Вы не можете редактировать свои сообщения
Вы не можете удалять свои сообщения
Вы не можете голосовать в опросах
Вы не можете прикреплять файлы к сообщениям
Вы не можете скачивать файлы