Бесстыжие / Shameless (US) / Сезон 5 / Серии 1-12 (12) (Пол Эбботт) [2015 г., драма, комедия, HDTVRip] MVO (AlexFilm)

Ответить на тему
 

emilsky ®

Стаж: 7 лет 4 месяца

Сообщений: 2237

Симпатии: 610

--Бесстыжие / Shameless
5 сезон, 1-12 серии
-- Год выпуска: 2014
Страна: США
Жанр: драма, комедия
Продолжительность: 12 х ~49-57 мин
Озвучание: профессиональное многоголосое закадровое (AlexFilm)
Субтитры: нет
Создатель сериала: Пол Эбботт
Режиссеры: Марк Майлод, Джон Уэллс, Мими Ледер, Санаа Хамри, Питер Сигал-В ролях: Уильям Х. Мэйси, Эмми Россам, Камерон Монахэн, Джереми Аллен Уайт, Эмма Кинни, Итэн Каткоски, Блейк Александр Джонсон, Бреннан Кэйн Джонсон, Шанола Хэмптон, Стив Хоуи, Джоан Кьюсак, Ноэль Фишер, Эмма Гринвелл, Джэйк Макдорман...-Описание: Shameless, основанный на одноименном британском сериале, расскажет о семействе Галлагеров из Чикаго. Мать уже давно бросила семью, а отец-алкоголик обычно лежит в отключке, поэтому старшей дочери приходится взять на себя обязанности родителя и воспитывать четверых братьев и сестру.-Релиз: -Перевод: Doctor Joker и MartinaG
Монтаж и сведение звука: Сергей Мартынов
Роли озвучивали:
Евгения Тихонова
Анастасия Флигина
Константин Погодаев
Александр Дасевич
Михаил Суслов

Постер: Андрей Шапал- -Внимание! В сериале присутствуют сцены с обнаженной натурой и ненормативная лексика!-Качество: HDTVRip
Формат: AVI
Видео кодек: XviD
Аудио кодек: MP3
Видео: 720x400 (1.80:1), 23.976 fps, XviD ~1400 kbps avg, 0.20 bit/pixel
Аудио Rus: 48 kHz, MPEG Layer 3, 2 ch, ~128.00 kbps avg
Аудио Eng: 48 kHz, MPEG Layer 3, 2 ch, ~128.00 kbps avg

МИ

Format : AVI
Format/Info : Audio Video Interleave
File size : 655 MiB
Duration : 54mn 34s
Overall bit rate : 1 677 Kbps
Writing application : VirtualDubMod 1.5.10.2 (build 2542/release)
Writing library : VirtualDubMod build 2542/release
Video
ID : 0
Format : MPEG-4 Visual
Format profile : Advanced [email protected]
Format settings, BVOP : 1
Format settings, QPel : No
Format settings, GMC : No warppoints
Format settings, Matrix : Default (MPEG)
Codec ID : XVID
Codec ID/Hint : XviD
Duration : 54mn 34s
Bit rate : 1 407 Kbps
Width : 720 pixels
Height : 400 pixels
Display aspect ratio : 16:9
Frame rate : 23.976 fps
Color space : YUV
Chroma subsampling : 4:2:0
Bit depth : 8 bits
Scan type : Progressive
Compression mode : Lossy
Bits/(Pixel*Frame) : 0.204
Stream size : 549 MiB (84%)
Writing library : XviD 1.2.1 (UTC 2008-12-04)
Audio #1
ID : 1
Format : MPEG Audio
Format version : Version 1
Format profile : Layer 3
Mode : Joint stereo
Mode extension : MS Stereo
Codec ID : 55
Codec ID/Hint : MP3
Duration : 54mn 34s
Bit rate mode : Constant
Bit rate : 128 Kbps
Channel(s) : 2 channels
Sampling rate : 48.0 KHz
Compression mode : Lossy
Stream size : 50.0 MiB (8%)
Alignment : Aligned on interleaves
Interleave, duration : 42 ms (1.00 video frame)
Interleave, preload duration : 504 ms
Title : Russian (AlexFilm)
Audio #2
ID : 2
Format : MPEG Audio
Format version : Version 1
Format profile : Layer 3
Mode : Joint stereo
Mode extension : MS Stereo
Codec ID : 55
Codec ID/Hint : MP3
Duration : 54mn 34s
Bit rate mode : Constant
Bit rate : 128 Kbps
Channel(s) : 2 channels
Sampling rate : 48.0 KHz
Compression mode : Lossy
Stream size : 50.0 MiB (8%)
Alignment : Aligned on interleaves
Interleave, duration : 42 ms (1.00 video frame)
Interleave, preload duration : 504 ms
Title : English

Скринчики



Последний раз редактировалось: emilsky (2015-04-13 00:49), всего редактировалось 1 раз

Создавать темы 10-Апр-2015 06:31

[Профиль]  [ЛС] 

emilsky ®

Стаж: 7 лет 4 месяца

Сообщений: 2237

Симпатии: 610

12 серия, финал!

Создавать темы 10-Апр-2015 06:32

[Профиль]  [ЛС] 

w122ard1

Стаж: 1 год 5 месяцев

Сообщений: 1

Дайте скорости народ(

Создавать темы 23-Фев-2017 17:06

[Профиль]  [ЛС] 
Показать сообщения:    
Ответить на тему

Текущее время: 24-Ноя 16:17

Часовой пояс: UTC + 5



Вы не можете начинать темы
Вы не можете отвечать на сообщения
Вы не можете редактировать свои сообщения
Вы не можете удалять свои сообщения
Вы не можете голосовать в опросах
Вы не можете прикреплять файлы к сообщениям
Вы не можете скачивать файлы