Я / I (С. Шанкар / S. Shankar) [2015, Индия, Боевик, фантастика, фэнтези, триллер, WebRip] (DVO : DeadSno & den904)

Ответить на тему
 

Davron1402 ®

Стаж: 3 года 7 месяцев

Сообщений: 136

Симпатии: 122

Я / I- Страна: Индия
Жанр: Боевик, фантастика, фэнтези, триллер
Год выпуска: 2015
Продолжительность: 02:50:19
Перевод: Любительский (двухголосый закадровый) Доп. инфо о переводе DeadSno & den904
Cубтитры: нет
Режиссер: С. Шанкар / S. Shankar
В ролях: Чийян Викрам, Эми Джексон, Суреш Гопи, Упен Патель, Сантханам, Мохан Капур
Описание: Красавица Дия - звезда модельного бизнеса, но в то же время, скромная и порядочная девушка. Устав от домогательств своего партнера по съемкам, она обращается за помощью к звездному бодибилдеру Лингесану. Ее план прост: заменить наглого напарника Джона, сделав из Лингесана звезду. Однако деревянный качок никак не может постичь даже азов актерского мастерства, а потому менеджеру Дии, который тоже хочет помочь девушке, приходит на ум хитрый план, который удается и Лингесан становится самой популярной моделью. Однако завистники не дремлют, заключив подлый союз, они заражают Лингесана страшной и редкой болезнью-Качество видео: WebRip
Формат видео: AVI
Видео: xvid, 852 x 480 (16:9), 25.000 fps, 768 Kbps
Аудио: MPEG Audio, 44.1 KHz, 2 channels, 128 Kbps

MediaInfo

Расположение: D:\KINO\Ya.2015.avi
Имя файла: Ya.2015.avi
Формат файла: .avi (AVI)
Размер файла: 1.08 GB
Длительность: 2h 50mn
Навигация по главам: Нет
Bitrate (все потоки): 912 Kbps
...при помощи: Lavf51.12.1
Название: Ya.2015
Тип потока: Видео
Длительность: 02:50:19
Кодек: xvid
Кодек/ID: xvid
Размеры изображения: 852 x 480 (16:9)
Частота кадров: 25.000 fps
Размер потока: 936 MiB (84%)
Битрейт: 768 Kbps
Тип потока: Звук #1
Длительность: 02:50:19.416
Кодек: MPEG Audio
Кодек/Профиль: Layer 3
Кодек/ID: 55
Частота дискретизации: 44.1 KHz
Каналов: 2 channels
Битрейт: 128 Kbps
Битрейт/тип: Constant
Размер потока: 156 MiB (14%)
Метод сжатия: Lossy
Программа: LAME3.97ЄЄЄЄЄЄЄЄЄЄЄЄ

Скриншоты




Создавать темы 10-Апр-2015 13:48

[Профиль]  [ЛС] 
Показать сообщения:    
Ответить на тему

Текущее время: 24-Авг 08:13

Часовой пояс: UTC + 5



Вы не можете начинать темы
Вы не можете отвечать на сообщения
Вы не можете редактировать свои сообщения
Вы не можете удалять свои сообщения
Вы не можете голосовать в опросах
Вы не можете прикреплять файлы к сообщениям
Вы не можете скачивать файлы