Холодный свет / Cold Light / Kaldaljós (Хильмар Оддссон / Hilmar Oddsson) [2004, Исландия, Норвегия, Великобритания, Германия, драма, DVDRip-AVC] (VO) (Sub Rus, Eng, Iceland+ Original Icelandic)

Ответить на тему
 

kat222000 ®

Стаж: 6 лет 4 месяца

Сообщений: 608

Симпатии: 1055

-Холодный свет / Cold Light / Kaldaljós«Do you sometimes feel that you know something will happen before it does? Something bad...»-Страна: Исландия, Норвегия, Великобритания, Германия
Жанр: драма
Год выпуска: 2004
Продолжительность: 01:31:00
Перевод: Одноголосый закадровый
Cубтитры: Русские (UTF-8) , English (VobSub), Icelandic (VobSub) (отключаемые)
Оригинальная аудиодорожка: Icelandic
Навигация по главам: есть-Режиссер: Хильмар Оддссон / Hilmar Oddsson-В ролях: Ингвар Эггерт Сигюрдссон (Ingvar Eggert Sigurðsson) - Взрослый Гримюр, Рут Оулафсдоуттир (Ruth Ólafsdóttir) - Линда, Стейнюдн Хардардоуттир (Steinunn Harðardóttir) - Свава, Ауслаукюр Ингварссон (Áslákur Ingvarsson) - Молодой Гримюр, Катла Тоургейрсдоуттир (Katla M. Þórgeirsdóttir) - Лоура, Снайфридюр Ингварсдоуттир (Snæfriður Ingvarsdóttir) - Готтина, Кристбьёрк Кйельд (Kristbjörg Kjeld) - Альфрюн, Тоуреи Сигтхтоурсдоуттир (Thórey Sigthórsdóttir) - Тоура, мама Гримюра, Сара Дёгг Аусгейрсдоуттир (Sara Dögg Ásgeirsdóttir) - Анна, Элис Филип Вильям Скоби (Elis Philip William Scobie) - Молодой Тюми, Бьёрн Хлинур Харальдссон (Björn Hlynur Haraldsson) - Ингриди-Описание: 40 летний холостяк, затворник и одиночка, ставший таким после пережитой в детстве тяжелой эмоциональной травмы. Он художник, рисунки которого обладают пророческими свойствами. Глаза Гримюра способны разглядеть в настоящем фрагменты грядущего. Одно из таких запечатленных на бумаге пророчеств обернулось когда-то жуткой трагедией для него и его близких…- -Возраст: зрителям, достигшим 16 лет-Рейтинг MPAA: лицам до 17 лет обязательно присутствие взрослого-Качество видео: DVDRip-AVC
Формат видео: MKV
Видео: AVC, 1018x568, 25fps, 1 989 kbps
Аудио 1: MP3, 48000Hz, 2 ch, 128kbps (Русский)
Аудио 2: Dolby AC3, 48000Hz, 2 ch, 192kbps (Icelandic)
Формат субтитров: русские (UTF-8), English (VobSub), Icelandic (VobSub)-

MediaInfo

General
Unique ID : 222257566806511271381535944608192179990 (0xA73540157DC376E587D4138930C8AF16)
Format : Matroska
Format version : Version 4 / Version 2
File size : 1.46 GiB
Duration : 1h 31mn
Overall bit rate : 2 298 Kbps
Encoded date : UTC 2015-04-06 14:34:55
Writing application : mkvmerge v7.5.0 ('Glass Culture') 64bit built on Jan 4 2015 16:48:44
Writing library : Lavf55.12.0
_STATISTICS_WRITING_APP : mkvmerge v7.5.0 ('Glass Culture') 64bit built on Jan 4 2015 16:48:44
_STATISTICS_WRITING_DATE_UTC : 2015-04-06 14:34:55
_STATISTICS_TAGS : BPS DURATION NUMBER_OF_FRAMES NUMBER_OF_BYTES
DURATION : 01:19:17.793000000
NUMBER_OF_FRAMES : 102
NUMBER_OF_BYTES : 122054
Video
ID : 1
Format : AVC
Format/Info : Advanced Video Codec
Format profile : [email protected]
Format settings, CABAC : Yes
Format settings, ReFrames : 9 frames
Codec ID : V_MPEG4/ISO/AVC
Duration : 1h 31mn
Bit rate : 1 989 Kbps
Width : 1018 pixels
Height : 568 pixels
Display aspect ratio : 16:9
Original display aspect ratio : 16:9
Frame rate mode : Constant
Frame rate : 25.000 fps
Color space : YUV
Chroma subsampling : 4:2:0
Bit depth : 8 bits
Scan type : Progressive
Bits/(Pixel*Frame) : 0.196
Stream size : 1.23 GiB (84%)
Writing library : x264 core 142 r2479 dd79a61
Encoding settings : cabac=1 / ref=9 / deblock=1:-3:-3 / analyse=0x3:0x133 / me=umh / subme=9 / psy=1 / psy_rd=1.00:0.00 / mixed_ref=1 / me_range=24 / chroma_me=1 / trellis=2 / 8x8dct=1 / cqm=0 / deadzone=21,11 / fast_pskip=0 / chroma_qp_offset=-2 / threads=6 / lookahead_threads=1 / sliced_threads=0 / nr=0 / decimate=1 / interlaced=0 / bluray_compat=0 / constrained_intra=0 / bframes=6 / b_pyramid=2 / b_adapt=2 / b_bias=0 / direct=3 / weightb=1 / open_gop=0 / weightp=2 / keyint=250 / keyint_min=25 / scenecut=40 / intra_refresh=0 / rc_lookahead=60 / rc=abr / mbtree=1 / bitrate=1989 / ratetol=1.0 / qcomp=0.60 / qpmin=0 / qpmax=69 / qpstep=4 / vbv_maxrate=62500 / vbv_bufsize=78125 / nal_hrd=none / filler=0 / ip_ratio=1.40 / aq=2:1.00
Default : Yes
Forced : No
Color primaries : BT.601 PAL
Transfer characteristics : BT.709
Matrix coefficients : BT.601
_STATISTICS_WRITING_APP : mkvmerge v7.5.0 ('Glass Culture') 64bit built on Jan 4 2015 16:48:44
_STATISTICS_WRITING_DATE_UTC : 2015-04-06 14:34:55
_STATISTICS_TAGS : BPS DURATION NUMBER_OF_FRAMES NUMBER_OF_BYTES
DURATION : 01:30:59.960000000
NUMBER_OF_FRAMES : 136499
NUMBER_OF_BYTES : 1347742654
Audio #1
ID : 2
Format : MPEG Audio
Format version : Version 1
Format profile : Layer 3
Mode : Joint stereo
Mode extension : MS Stereo
Codec ID : A_MPEG/L3
Codec ID/Hint : MP3
Duration : 1h 31mn
Bit rate mode : Constant
Bit rate : 128 Kbps
Channel(s) : 2 channels
Sampling rate : 48.0 KHz
Compression mode : Lossy
Delay relative to video : -80ms
Stream size : 83.3 MiB (6%)
Writing library : LAME3.98
Language : Icelandic
Default : Yes
Forced : No
_STATISTICS_WRITING_APP : mkvmerge v7.5.0 ('Glass Culture') 64bit built on Jan 4 2015 16:48:44
_STATISTICS_WRITING_DATE_UTC : 2015-04-06 14:34:55
_STATISTICS_TAGS : BPS DURATION NUMBER_OF_FRAMES NUMBER_OF_BYTES
DURATION : 01:30:59.968000000
NUMBER_OF_FRAMES : 170624
NUMBER_OF_BYTES : 131039232
Audio #2
ID : 3
Format : AC-3
Format/Info : Audio Coding 3
Mode extension : CM (complete main)
Format settings, Endianness : Big
Codec ID : A_AC3
Duration : 1h 31mn
Bit rate mode : Constant
Bit rate : 192 Kbps
Channel(s) : 2 channels
Channel positions : Front: L R
Sampling rate : 48.0 KHz
Bit depth : 16 bits
Compression mode : Lossy
Stream size : 125 MiB (8%)
Title : Stereo
Language : Icelandic
Default : No
Forced : No
Text #1
ID : 4
Format : UTF-8
Codec ID : S_TEXT/UTF8
Codec ID/Info : UTF-8 Plain Text
Title : Русские субтитры (iliyago)
Language : Russian
Default : No
Forced : No
Text #2
ID : 5
Format : VobSub
Muxing mode : zlib
Codec ID : S_VOBSUB
Codec ID/Info : The same subtitle format used on DVDs
Language : English
Default : No
Forced : No
Text #3
ID : 6
Format : VobSub
Muxing mode : zlib
Codec ID : S_VOBSUB
Codec ID/Info : The same subtitle format used on DVDs
Language : Icelandic
Default : No
Forced : No
Menu
00:00:00.000 : :Chapter 1
00:10:47.720 : :Chapter 2
00:21:48.800 : :Chapter 3
00:31:46.600 : :Chapter 4
00:41:30.680 : :Chapter 5
00:51:12.800 : :Chapter 6
01:01:24.600 : :Chapter 7
01:10:37.600 : :Chapter 8
01:20:54.720 : :Chapter 9
-

Скриншоты



- - -
-

Создавать темы 10-Апр-2015 21:02

[Профиль]  [ЛС] 
Показать сообщения:    
Ответить на тему

Текущее время: 17-Авг 13:07

Часовой пояс: UTC + 5



Вы не можете начинать темы
Вы не можете отвечать на сообщения
Вы не можете редактировать свои сообщения
Вы не можете удалять свои сообщения
Вы не можете голосовать в опросах
Вы не можете прикреплять файлы к сообщениям
Вы не можете скачивать файлы