1944 / 1944 (Элмо Нюганен/Elmo Nüganen) [2015, Эстония, Финляндия, драма, военный, DVDRip] (AVO : Shoegaze)

Ответить на тему
 

aliyor-azizovich ®

Стаж: 3 года 10 месяцев

Сообщений: 17

Симпатии: 12

1944 / 1944
Страна: Эстония, Финляндия
Жанр: драма, военный
Год выпуска: 2015
Продолжительность: 01:40:00
Перевод: Авторский (одноголосый закадровый) Доп. инфо о переводе Shoegaze
Cубтитры: нет
Режиссер: Элмо Нюганен/Elmo Nüganen
В ролях: Märt Pius. Майт Мальмстен. Айн Мяеотс. Magnús Mariuson, Maiken Schmidt, Kristjan Üksküla, Тони Ойя, Герд Раудсеп, Kaspar Velberg, Marko Leht
Описание: В новом историческом фильме Элмо Нюганена «1944» рассматриваются военные события, происходившие в Эстонии в 1944 году, в период от июльских боёв в Синимяэ до ноября, когда полуостров Сырве был уже завоёван войсками Советской Армии. Война показана глазами участников событий с обеих враждующих сторон — эстонцев, которые воевали и на стороне немецкой армии в 20-й эстонской дивизии Waffen-SS, и в составе 8-го Эстонского стрелкового корпуса Советской Армии. Для жителей Эстонии это была война, в которой каждый делал свой личный выбор. Именно с таким нелёгким выбором сталкиваются главные герои картины — солдаты противоборствующих сторон Карл Таммик и Юри Йыги — а также их сослуживцы, родные, близких и совсем незнакомые люди…
Качество видео: DVDRip
Формат видео: AVI
Видео: 720x304 (2,35:1), 25 fps, XviD, 1571 Кбит/сек
Аудио: 448 Кбит/сек, 6 каналов, 16 бит, 48 КГц, AC3

MediaInfo

General
Complete name : 1944.2015.DVDRip.Xvid.Rus.by Shoegaze.avi
Format : AVI
Format/Info : Audio Video Interleave
File size : 1.36 GiB
Duration : 1h 36mn
Overall bit rate : 2 028 Kbps
Writing application : VirtualDubMod 1.5.10.3 (build 2550/release)
Writing library : VirtualDubMod build 2550/release
Comment : i
Video
ID : 0
Format : MPEG-4 Visual
Format profile : Advanced [email protected]
Format settings, BVOP : 2
Format settings, QPel : No
Format settings, GMC : No warppoints
Format settings, Matrix : Default (H.263)
Codec ID : XVID
Codec ID/Hint : XviD
Duration : 1h 36mn
Bit rate : 1 571 Kbps
Width : 720 pixels
Height : 304 pixels
Display aspect ratio : 2.35:1
Frame rate : 25.000 fps
Color space : YUV
Chroma subsampling : 4:2:0
Bit depth : 8 bits
Scan type : Progressive
Compression mode : Lossy
Bits/(Pixel*Frame) : 0.287
Stream size : 1.05 GiB (77%)
Writing library : XviD 64
Audio
ID : 1
Format : AC-3
Format/Info : Audio Coding 3
Mode extension : CM (complete main)
Format settings, Endianness : Big
Codec ID : 2000
Duration : 1h 35mn
Bit rate mode : Constant
Bit rate : 448 Kbps
Channel(s) : 6 channels
Channel positions : Front: L C R, Side: L R, LFE
Sampling rate : 48.0 KHz
Bit depth : 16 bits
Compression mode : Lossy
Stream size : 307 MiB (22%)
Alignment : Split accross interleaves
Interleave, duration : 40 ms (1.00 video frame)
Interleave, preload duratio : 500 ms

Скриншот c названием фильма

Скриншоты



Создавать темы 11-Апр-2015 14:00

[Профиль]  [ЛС] 

Ershov

Стаж: 4 года 7 месяцев

Сообщений: 61

Симпатии: 6

Эстония??? Свой вариант на ВОВ?

Создавать темы 12-Апр-2015 22:50

[Профиль]  [ЛС] 

2222

Стаж: 5 лет 2 месяца

Сообщений: 193

Симпатии: 3

Интересно будет посмотреть Эстонский кинематограф )

_________________
Подпись отключена за нарушение правил форума

Создавать темы 13-Апр-2015 14:35

[Профиль]  [ЛС] 

Mosferatus

Стаж: 6 лет 7 месяцев

Сообщений: 21

Симпатии: 3

Как фильм отпишитесь! Стоит ли качать?

Создавать темы 13-Апр-2015 19:43

[Профиль]  [ЛС] 

-OdilmaX-

Стаж: 2 года 6 месяцев

Сообщений: 425

Симпатии: 854

930764Как фильм отпишитесь! Стоит ли качать?
фильм норальный )) стоит скачать и посмотреть ab

Создавать темы 13-Апр-2015 21:17

[Профиль]  [ЛС] 
Показать сообщения:    
Ответить на тему

Текущее время: 26-Сен 05:17

Часовой пояс: UTC + 5



Вы не можете начинать темы
Вы не можете отвечать на сообщения
Вы не можете редактировать свои сообщения
Вы не можете удалять свои сообщения
Вы не можете голосовать в опросах
Вы не можете прикреплять файлы к сообщениям
Вы не можете скачивать файлы