Разрушитель / Demolition Man (Марко Брамбилла/Marco Brambilla) [1993, USA, Боевик, BDRip] (MVO) (Original Eng)

Ответить на тему
 

ruhal ®

Стаж: 2 года 6 месяцев

Сообщений: 1181

Симпатии: 1836

-Разрушитель / Demolition Man- Страна: США
Жанр: Боевик
Год выпуска: 1993
Продолжительность: 01:55:03-Перевод: Профессиональный (многоголосый закадровый)
Cубтитры: нет
Оригинальная аудиодорожка: английский
Режиссер: Марко Брамбилла/Marco Brambilla-В ролях: Сильвестр Сталлоне, Уэсли Снайпс, Сандра Буллок, Бенджамин Брэтт, Боб Гантон, Гленн Шэдикс, Гранд Л. Буш, Денис Лири, Найджел Хоторн, Пэт Скиппер-Описание: В 2032 году в крио-тюрьме после 35-летней заморозки пробуждается один из самых опасных преступников Саймон Феникс и решает взять приступом спокойный, свободный от всякого насилия Лос-Анджелес.
Неспособные справиться с жестокими повадками 1990-х годов, свойственными Фениксу, официальные власти ищут полицейского тех лет, который смог бы одержать верх над преступником 90-х. Для этого они размораживают сержанта Джона Спартана, несправедливо осужденного на срок в крио-тюрьме за его последнюю схватку с Фениксом.-Качество видео: BDRip
Формат видео: AVI
Видео: Xvid 720x304 23.976fps 1802kbps
Аудио: Dolby AC3 48000Hz 6ch 448kbps
Аудио 2: Dolby AC3 48000Hz 6ch 448kbps-

MediaInfo

General
Complete name : D:\Films\razrushitel_rus_eng.avi
Format : AVI
Format/Info : Audio Video Interleave
Format profile : OpenDML
File size : 2.18 GiB
Duration : 1h 55mn
Overall bit rate : 2 716 Kbps
Movie name : Demolition Man (1993) BDRip
Director : DaniLch
Genre : Action/Sci-Fi/Crime
Writing application : VirtualDubMod 1.5.10.2 (build 2542/release)
Copyright : http://hqclub.net/
Comment : R.G. HQCLUB
Video
ID : 0
Format : MPEG-4 Visual
Format profile : Advanced [email protected]
Format settings, BVOP : Yes
Format settings, QPel : No
Format settings, GMC : No warppoints
Format settings, Matrix : Custom
Codec ID : XVID
Codec ID/Hint : XviD
Duration : 1h 55mn
Bit rate : 1 802 Kbps
Width : 720 pixels
Height : 304 pixels
Display aspect ratio : 2.35:1
Frame rate : 23.976 fps
Color space : YUV
Chroma subsampling : 4:2:0
Bit depth : 8 bits
Scan type : Progressive
Compression mode : Lossy
Bits/(Pixel*Frame) : 0.343
Stream size : 1.45 GiB (66%)
Writing library : XviD 57
Audio #1
ID : 1
Format : AC-3
Format/Info : Audio Coding 3
Mode extension : CM (complete main)
Format settings, Endianness : Big
Codec ID : 2000
Duration : 1h 55mn
Bit rate mode : Constant
Bit rate : 448 Kbps
Channel(s) : 6 channels
Channel positions : Front: L C R, Side: L R, LFE
Sampling rate : 48.0 KHz
Bit depth : 16 bits
Compression mode : Lossy
Stream size : 369 MiB (16%)
Alignment : Split accross interleaves
Interleave, duration : 42 ms (1.00 video frame)
Interleave, preload duration : 500 ms
Audio #2
ID : 2
Format : AC-3
Format/Info : Audio Coding 3
Mode extension : CM (complete main)
Format settings, Endianness : Big
Codec ID : 2000
Duration : 1h 55mn
Bit rate mode : Constant
Bit rate : 448 Kbps
Channel(s) : 6 channels
Channel positions : Front: L C R, Side: L R, LFE
Sampling rate : 48.0 KHz
Bit depth : 16 bits
Compression mode : Lossy
Stream size : 369 MiB (16%)
Alignment : Split accross interleaves
Interleave, duration : 42 ms (1.00 video frame)
Interleave, preload duration : 500 ms

Скриншоты



Создавать темы 11-Апр-2015 14:36

[Профиль]  [ЛС] 

PETETONG

Стаж: 5 лет 8 месяцев

Сообщений: 7

Симпатии: 1

Помогите скачать ребят!

Создавать темы 15-Фев-2016 16:19

[Профиль]  [ЛС] 
Показать сообщения:    
Ответить на тему

Текущее время: 24-Окт 03:47

Часовой пояс: UTC + 5



Вы не можете начинать темы
Вы не можете отвечать на сообщения
Вы не можете редактировать свои сообщения
Вы не можете удалять свои сообщения
Вы не можете голосовать в опросах
Вы не можете прикреплять файлы к сообщениям
Вы не можете скачивать файлы